Тост / Toast (С. Дж. Кларксон / S.J. Clarkson) [2010, Великобритания, драма, комедия, биография, BDRemux 1080p] MVO + VO + Sub Rus, Eng + Original Eng

Ответить на тему
 
Автор Сообщение

user ®

Стаж: 7 лет 7 месяцев

Сообщений: 20008

Пост Пост: #1 от 10-Сен-2014 02:15

[Цитировать]

Тост / Toast
Страна: Великобритания
Студия: BBC Films, Ruby Films, Screen West Midlands
Жанр: драма, комедия, биография
Год выпуска: 2010
Продолжительность: 01:36:04
Перевод: Профессиональный (многоголосый закадровый)
Перевод 2: Одноголосый закадровый В. Прошин
Cубтитры: русские, английские
Оригинальная аудиодорожка: английский
Режиссер: C.Дж. Кларксон / S.J. Clarkson
В ролях: Фредди Хаймор, Хелена Бонем Картер, Оскар Кеннеди, Виктория Хэмилтон, Колин Проктер, Кен Стотт, Мэттью МакНалти, Фрейзер Хакл, Киа Пегг, Рилли Ньюболд
Описание: Действие происходит в британском городке Вулвергемптон, в 1957 году. Найджел Слейтер, девятилетний мальчик, любит свою мать, которая является безнадёжным поваром. Её лучшее блюдо — тост, в то время как у мальчика большой кулинарный талант. Когда его мать умирает, Найджел остаётся с отцом, с которым он никогда особо не ладил. Но дела становятся ещё хуже, когда отец нанимает уборщицу Джоуэн Поттер. Найджел начинает бояться, что она стремится стать новой миссис Слейтер. Однако, Джоуэн — превосходный повар, но это только создаёт конкуренцию Найджелу, который является единственным мальчиком в кулинарном классе его средней школы. Тогда он начинает соревноваться с Джоуэн, чтобы найти путь к сердцу своего отца.

Sample
Тип релиза: BDRemux 1080p
Контейнер: MKV
Видео: MPEG4 AVC Video, H264, 16:9, 1920x1080, 24 fps, 22370 Kbps
Аудио: Russian (AC3, 2 ch, 192 kbps, 16 bits, 48.0 KHz) - MVO
Аудио 2: Russian (AC3, 6 ch, 448 kbps, 16 bits, 48.0 KHz) - В. Прошин
Аудио 3: English (DTS-HD MA, 6 ch, 1741 kbps, 16 bits, 48.0 KHz / DTS core: 6 ch, 1509 kbps, 16 bits, 48.0 KHz) - оригинал
Формат субтитров: softsub (SRT)

MediaInfo
General
Unique ID : 245946702607077373431434911714149395757 (0xB9079CA7469F97229550A92D8C03ED2D)
Complete name : E:\1\Toast (2010)\Toast 2010 BDRemux 1080p.mkv
Format : Matroska
Format version : Version 4 / Version 2
File size : 16.6 GiB
Duration : 1h 36mn
Overall bit rate mode : Variable
Overall bit rate : 24.8 Mbps
Encoded date : UTC 2014-09-08 05:13:31
Writing application : mkvmerge v6.1.0 ('Old Devil') built on Mar 2 2013 14:32:37
Writing library : libebml v1.3.0 + libmatroska v1.4.0
Video
ID : 1
Format : AVC
Format/Info : Advanced Video Codec
Format profile : High@L4.1
Format settings, CABAC : Yes
Format settings, ReFrames : 3 frames
Format settings, GOP : M=3, N=12
Codec ID : V_MPEG4/ISO/AVC
Duration : 1h 36mn
Bit rate mode : Variable
Maximum bit rate : 31.0 Mbps
Width : 1 920 pixels
Height : 1 080 pixels
Display aspect ratio : 16:9
Frame rate mode : Constant
Frame rate : 24.000 fps
Standard : NTSC
Color space : YUV
Chroma subsampling : 4:2:0
Bit depth : 8 bits
Scan type : Progressive
Language : English
Default : Yes
Forced : No
Color primaries : BT.709
Transfer characteristics : BT.709
Matrix coefficients : BT.709
Audio #1
ID : 2
Format : AC-3
Format/Info : Audio Coding 3
Mode extension : CM (complete main)
Format settings, Endianness : Big
Codec ID : A_AC3
Duration : 1h 36mn
Bit rate mode : Constant
Bit rate : 192 Kbps
Channel count : 2 channels
Channel positions : Front: L R
Sampling rate : 48.0 KHz
Bit depth : 16 bits
Compression mode : Lossy
Stream size : 132 MiB (1%)
Title : MVO
Language : Russian
Default : Yes
Forced : No
Audio #2
ID : 3
Format : AC-3
Format/Info : Audio Coding 3
Mode extension : CM (complete main)
Format settings, Endianness : Big
Codec ID : A_AC3
Duration : 1h 36mn
Bit rate mode : Constant
Bit rate : 448 Kbps
Channel count : 6 channels
Channel positions : Front: L C R, Side: L R, LFE
Sampling rate : 48.0 KHz
Bit depth : 16 bits
Compression mode : Lossy
Stream size : 308 MiB (2%)
Title : В. Прошин
Language : Russian
Default : No
Forced : No
Audio #3
ID : 4
Format : DTS
Format/Info : Digital Theater Systems
Format profile : MA / Core
Mode : 16
Format settings, Endianness : Big
Codec ID : A_DTS
Duration : 1h 36mn
Bit rate mode : Variable
Bit rate : Unknown / 1 509 Kbps
Channel count : 6 channels
Channel positions : Front: L C R, Side: L R, LFE
Sampling rate : 48.0 KHz
Bit depth : 16 bits
Compression mode : Lossless / Lossy
Language : English
Default : No
Forced : No
Text #1
ID : 5
Format : UTF-8
Codec ID : S_TEXT/UTF8
Codec ID/Info : UTF-8 Plain Text
Language : Russian
Default : No
Forced : No
Text #2
ID : 6
Format : UTF-8
Codec ID : S_TEXT/UTF8
Codec ID/Info : UTF-8 Plain Text
Language : English
Default : No
Forced : No
Menu
00:00:00.000 : en:Chapter 01
00:01:45.000 : en:Chapter 02
00:12:32.417 : en:Chapter 03
00:22:14.250 : en:Chapter 04
00:33:50.833 : en:Chapter 05
00:42:18.067 : en:Chapter06
00:53:24.042 : en:Chapter 07
01:03:48.125 : en:Chapter 08
01:14:12.792 : en:Chapter 09
01:24:47.000 : en:Chapter 10
01:32:53.000 : en:Chapter 11
Скриншоты
Скачать

Скачать торрент!

Как скачивать? · Что такое торрент? · Рейтинг и ограничения

Сайт не распространяет и не хранит электронные версии произведений, а лишь предоставляет доступ к создаваемому пользователями каталогу ссылок на торрент-файлы, которые содержат только списки хеш-сумм

[Профиль] [ЛС]
Показать сообщения:    
Ответить на тему

Текущее время: Сегодня 18:16

Часовой пояс: GMT + 4



Вы не можете начинать темы
Вы не можете отвечать на сообщения
Вы не можете редактировать свои сообщения
Вы не можете удалять свои сообщения
Вы не можете голосовать в опросах
Вы не можете прикреплять файлы к сообщениям
Вы не можете скачивать файлы