Без правил / Все захваты разрешены / Безо всяких правил / No Holds Barred (Томас Дж. Райт / Thomas J. Wright) [1989, США, боевик, спорт, комедия, BDRip 720p] DVO + AVO (Гаврилов) + AVO (Володарский) + AVO (Иванов) + VO + Sub Eng + Original Eng

Ответить на тему
 
Автор Сообщение

user ®

Стаж: 7 лет 7 месяцев

Сообщений: 20008

Пост Пост: #1 от 10-Сен-2014 02:15

[Цитировать]

Без правил / Все захваты разрешены / Безо всяких правил / No Holds Barred
Страна: США
Жанр: боевик, спорт, комедия
Год выпуска: 1989
Продолжительность: 01:29:02
-
Перевод 1: Профессиональный (двухголосый закадровый)
Перевод 2: Авторский (одноголосый закадровый) Андрей Гаврилов
Перевод 3: Авторский (одноголосый закадровый) Леонид Володарский
Перевод 4: Авторский (одноголосый закадровый) Михаил Иванов
Перевод 5: Одноголосый закадровый (Дохаловоподобный)
Cубтитры: английские SDH
Оригинальная аудиодорожка: английский
-
Режиссер: Томас Дж. Райт / Thomas J. Wright
В ролях: Халк Хоган, Джоан Северанс, Курт Фуллер, Том «Тайни» Листер мл., Марк Пеллегрино, Билл Хендерсон, Чарльз Левин, Дэвид Пэймер, Патрик О`Брайан, Джесси Вентура
-
Описание: Суперзвезде рестлинга - королю ринга делает выгодное предложение конкурентная ТВ сеть. Оставаясь до конца преданным своей работе, он отказывается от него, чем и вызывает на себя гнев конкурентов, пытающихся ставить палки в колеса, чтобы лишить короля экрана заслуженного трона.
Рип (Хоган) - чемпион реслинга, борьбы, где разрешены все приемы. Рипа злые дяди хотят использовать в своих грязных, корыстных целях, а именно - в рекламе на телевидении. Для них все средства хороши, но у Рипа есть весьма убедительный ответ. Ведь "рип" в переводе с английского значит "разорвать на куски". (Иванов М.)
-

-
Сэмпл: https://www.sendspace.com/file/liwy62
-
Тип релиза: BDRip 720p
Контейнер: MKV
Видео: 1280x720p (16:9), 25.000 fps, 5 510 Kbps
Аудио 1: русский / AC3 / 2.0 / 48 kHz / 192 kbps / 16 bit || DVO
Аудио 2: русский / AC3 / 2.0 / 48 kHz / 192 kbps / 16 bit || AVO
Аудио 3: русский / AC3 / 2.0 / 48 kHz / 192 kbps / 16 bit || AVO
Аудио 4: русский / AC3 / 2.0 / 48 kHz / 192 kbps / 16 bit || AVO
Аудио 5: русский / AC3 / 2.0 / 48 kHz / 192 kbps / 16 bit || VO
Аудио 6: английский / DTS / 5.1 / 48 kHz / 1509 kbps / 24 bit || ENG
Формат субтитров: softsub (SRT)
Главы: есть
Доп. информация
Сцен-рип от SONiDO, добавлена двухголоска отсюда [url=http://***/forum/viewtopic.php?t=4656353]http://***/forum/viewtopic.php?t=4656353[/url], одноголосые переводы взял с пиратки (раздача от DeASS - зв. дорожки от d_rocker, Володарского было 2-е дорожки - оставлена лучшая по звучанию, английские субтитры были взяты с этой же раздачи) Иванов взят отсюда [url=http://***/forum/viewtopic.php?t=4819932]http://***/forum/viewtopic.php?t=4819932[/url] Всем авторам спасибо.
MediaInfo
General
Unique ID : 234800198194793033510581282506963191306 (0xB0A4DF8E4DE5344F9A2263127288860A)
Complete name : C:\Users\ALEX\Downloads\Фильмы\HD\No Holds Barred.1989.BDRip.720p.5xRus.Eng.Sub.Chpt.mkv
Format : Matroska
Format version : Version 4 / Version 2
File size : 4.96 GiB
Duration : 1h 29mn
Overall bit rate : 7 980 Kbps
Encoded date : UTC 2014-09-09 14:36:04
Writing application : mkvmerge v6.6.0 ('The Edge Of The In Between') built on Dec 1 2013 17:55:00
Writing library : libebml v1.3.0 + libmatroska v1.4.1
Video
ID : 1
Format : AVC
Format/Info : Advanced Video Codec
Format profile : High@L4.1
Format settings, CABAC : Yes
Format settings, ReFrames : 5 frames
Codec ID : V_MPEG4/ISO/AVC
Duration : 1h 29mn
Bit rate : 5 510 Kbps
Width : 1 280 pixels
Height : 720 pixels
Display aspect ratio : 16:9
Frame rate mode : Constant
Frame rate : 25.000 fps
Color space : YUV
Chroma subsampling : 4:2:0
Bit depth : 8 bits
Scan type : Progressive
Bits/(Pixel*Frame) : 0.239
Stream size : 3.33 GiB (67%)
Title : SONiDO
Writing library : x264 core 135 r2345 f0c1c53
Encoding settings : cabac=1 / ref=5 / deblock=1:0:0 / analyse=0x3:0x133 / me=umh / subme=7 / psy=1 / psy_rd=1.00:0.00 / mixed_ref=1 / me_range=16 / chroma_me=1 / trellis=1 / 8x8dct=1 / cqm=0 / deadzone=21,11 / fast_pskip=0 / chroma_qp_offset=-2 / threads=12 / lookahead_threads=2 / sliced_threads=0 / nr=0 / decimate=1 / interlaced=0 / bluray_compat=0 / constrained_intra=0 / bframes=3 / b_pyramid=2 / b_adapt=2 / b_bias=0 / direct=3 / weightb=1 / open_gop=0 / weightp=2 / keyint=250 / keyint_min=25 / scenecut=40 / intra_refresh=0 / rc_lookahead=50 / rc=2pass / mbtree=1 / bitrate=5510 / ratetol=1.0 / qcomp=0.60 / qpmin=0 / qpmax=69 / qpstep=4 / cplxblur=20.0 / qblur=0.5 / ip_ratio=1.40 / aq=1:1.00
Language : English
Default : Yes
Forced : No
Audio #1
ID : 2
Format : AC-3
Format/Info : Audio Coding 3
Mode extension : CM (complete main)
Format settings, Endianness : Big
Codec ID : A_AC3
Duration : 1h 29mn
Bit rate mode : Constant
Bit rate : 192 Kbps
Channel(s) : 2 channels
Channel positions : Front: L R
Sampling rate : 48.0 KHz
Bit depth : 16 bits
Compression mode : Lossy
Stream size : 122 MiB (2%)
Title : DVO
Language : Russian
Default : Yes
Forced : No
Audio #2
ID : 3
Format : AC-3
Format/Info : Audio Coding 3
Mode extension : CM (complete main)
Format settings, Endianness : Big
Codec ID : A_AC3
Duration : 1h 29mn
Bit rate mode : Constant
Bit rate : 192 Kbps
Channel(s) : 2 channels
Channel positions : Front: L R
Sampling rate : 48.0 KHz
Bit depth : 16 bits
Compression mode : Lossy
Stream size : 122 MiB (2%)
Title : AVO (Гаврилов)
Language : Russian
Default : No
Forced : No
Audio #3
ID : 4
Format : AC-3
Format/Info : Audio Coding 3
Mode extension : CM (complete main)
Format settings, Endianness : Big
Codec ID : A_AC3
Duration : 1h 29mn
Bit rate mode : Constant
Bit rate : 192 Kbps
Channel(s) : 2 channels
Channel positions : Front: L R
Sampling rate : 48.0 KHz
Bit depth : 16 bits
Compression mode : Lossy
Stream size : 122 MiB (2%)
Title : AVO (Володарский)
Language : Russian
Default : No
Forced : No
Audio #4
ID : 5
Format : AC-3
Format/Info : Audio Coding 3
Mode extension : CM (complete main)
Format settings, Endianness : Big
Codec ID : A_AC3
Duration : 1h 29mn
Bit rate mode : Constant
Bit rate : 192 Kbps
Channel(s) : 2 channels
Channel positions : Front: L R
Sampling rate : 48.0 KHz
Bit depth : 16 bits
Compression mode : Lossy
Stream size : 122 MiB (2%)
Title : AVO (Иванов)
Language : Russian
Default : No
Forced : No
Audio #5
ID : 6
Format : AC-3
Format/Info : Audio Coding 3
Mode extension : CM (complete main)
Format settings, Endianness : Big
Codec ID : A_AC3
Duration : 1h 29mn
Bit rate mode : Constant
Bit rate : 192 Kbps
Channel(s) : 2 channels
Channel positions : Front: L R
Sampling rate : 48.0 KHz
Bit depth : 16 bits
Compression mode : Lossy
Stream size : 122 MiB (2%)
Title : VO
Language : Russian
Default : No
Forced : No
Audio #6
ID : 7
Format : DTS
Format/Info : Digital Theater Systems
Mode : 16
Format settings, Endianness : Big
Codec ID : A_DTS
Duration : 1h 29mn
Bit rate mode : Constant
Bit rate : 1 509 Kbps
Channel(s) : 6 channels
Channel positions : Front: L C R, Side: L R, LFE
Sampling rate : 48.0 KHz
Bit depth : 24 bits
Compression mode : Lossy
Stream size : 961 MiB (19%)
Title : Original
Language : English
Default : No
Forced : No
Text
ID : 8
Format : UTF-8
Codec ID : S_TEXT/UTF8
Codec ID/Info : UTF-8 Plain Text
Title : SDH
Language : English
Default : No
Forced : No
Menu
00:00:00.000 : en:00:00:00.000
00:09:37.680 : en:00:09:37.680
00:16:56.120 : en:00:16:56.120
00:21:26.240 : en:00:21:26.240
00:30:07.400 : en:00:30:07.400
00:38:02.920 : en:00:38:02.920
00:42:00.840 : en:00:42:00.840
00:51:16.800 : en:00:51:16.800
00:58:11.800 : en:00:58:11.800
01:04:44.160 : en:01:04:44.160
01:10:23.160 : en:01:10:23.160
Скриншоты
Скачать

Скачать торрент!

Как скачивать? · Что такое торрент? · Рейтинг и ограничения

Сайт не распространяет и не хранит электронные версии произведений, а лишь предоставляет доступ к создаваемому пользователями каталогу ссылок на торрент-файлы, которые содержат только списки хеш-сумм

[Профиль] [ЛС]
Показать сообщения:    
Ответить на тему

Текущее время: Сегодня 18:15

Часовой пояс: GMT + 4



Вы не можете начинать темы
Вы не можете отвечать на сообщения
Вы не можете редактировать свои сообщения
Вы не можете удалять свои сообщения
Вы не можете голосовать в опросах
Вы не можете прикреплять файлы к сообщениям
Вы не можете скачивать файлы