Полицейский 2000 года / TC 2000 (Т. Дж. Скотт / T.J. Scott) [1993, Канада, США, фантастика, боевик, BDRip 720p] DVO (Ракурс, Екатеринбург Арт) + AVO (Гаврилов) + AVO (Володарский) + Original Eng

Ответить на тему
 
Автор Сообщение

user ®

Стаж: 7 лет 7 месяцев

Сообщений: 20008

Пост Пост: #1 от 09-Сен-2014 23:05

[Цитировать]

Полицейский 2000 года / TC 2000
Страна: Канада, США
Жанр: фантастика, боевик
Год выпуска: 1993
Продолжительность: 01:34:47
-
Перевод 1: Профессиональный (двухголосый закадровый) студия "Ракурс" по заказу "Екатеринбург Арт Home Video
Перевод 2: Авторский (одноголосый закадровый) Андрей Гаврилов
Перевод 3: Авторский (одноголосый закадровый) Леонид Володарский
Cубтитры: нет
Оригинальная аудиодорожка: английский
-
Режиссер: Т.Дж. Скотт / T.J. Scott
В ролях: Боло Йенг, Джалал Мерхи, Билли Блэнкс, Бобби Филлипс, Маттиас Хьюз, Келли Галлант, Гарри Мок, Рамсей Смит, Грегори Филпот, М.Дж. Кенг
-
Описание: Напарницу полицейского Джейсона Сторма, Зои, погибшую во время патрулирования выходов из подземного, обустроенного мира на мало пригодную для жизни поверхность Земли, превращают в абсолютно неуязвимого киборга-убийцу.Джейсон узнает, что Зои запрограммирована взорвать бездействующую атомную станцию. Шеф полиции, возжелавший управлять всем миром, готов уничтожить вместе с преступниками все население Северной Америки. Для того, чтобы предотвратить катастрофу, Джейсон объединяет усилия с самым грозным и уважаемым боевиком одной из группировок, Сумаем…
-

-
Сэмпл: https://www.sendspace.com/file/n2x6na
-
Тип релиза: BDRip 720p
Контейнер: MKV
Видео: 1280x720p (16:9), 23.976 fps, 6 500 Kbps
Аудио 1: русский / AC3 / 2.0 / 48 kHz / 192 kbps / 16 bit || DVO
Аудио 2: русский / AC3 / 2.0 / 48 kHz / 192 kbps / 16 bit || AVO
Аудио 3: русский / AC3 / 2.0 / 48 kHz / 192 kbps / 16 bit || AVO
Аудио 4: английский / AC3 / 2.0 / 48 kHz / 192 kbps / 16 bit || ENG
Главы: есть
Доп. информация
рип от MediaClub, английские субтитры не нашел.
MediaInfo
General
Unique ID : 239206336023275829012682042502052996092 (0xB3F576EC519AAB99A1A21265506663FC)
Complete name : C:\Users\ALEX\Downloads\Фильмы\HD\TC 2000.1993.BDRip.720p.3xRus.Eng.Chpt.mkv
Format : Matroska
Format version : Version 4 / Version 2
File size : 4.81 GiB
Duration : 1h 34mn
Overall bit rate : 7 264 Kbps
Encoded date : UTC 2014-09-08 09:55:40
Writing application : mkvmerge v6.6.0 ('The Edge Of The In Between') built on Dec 1 2013 17:55:00
Writing library : libebml v1.3.0 + libmatroska v1.4.1
Video
ID : 1
Format : AVC
Format/Info : Advanced Video Codec
Format profile : High@L4.1
Format settings, CABAC : Yes
Format settings, ReFrames : 9 frames
Codec ID : V_MPEG4/ISO/AVC
Duration : 1h 34mn
Bit rate : 6 500 Kbps
Width : 1 280 pixels
Height : 720 pixels
Display aspect ratio : 16:9
Frame rate mode : Constant
Frame rate : 23.976 fps
Color space : YUV
Chroma subsampling : 4:2:0
Bit depth : 8 bits
Scan type : Progressive
Bits/(Pixel*Frame) : 0.294
Stream size : 4.21 GiB (87%)
Title : MediaClub
Writing library : x264 core 142 r2431+42 c69a006 tMod [8-bit@4:2:0 X86_64]
Encoding settings : cabac=1 / ref=9 / deblock=1:-3:-3 / analyse=0x3:0x113 / me=umh / subme=11 / psy=1 / fade_compensate=0.00 / psy_rd=1.00:0.20 / mixed_ref=1 / me_range=32 / chroma_me=1 / trellis=2 / 8x8dct=1 / cqm=0 / deadzone=21,11 / fast_pskip=0 / chroma_qp_offset=-3 / threads=12 / lookahead_threads=3 / sliced_threads=0 / nr=0 / decimate=0 / interlaced=0 / bluray_compat=0 / constrained_intra=0 / fgo=0 / bframes=12 / b_pyramid=2 / b_adapt=2 / b_bias=0 / direct=3 / weightb=1 / open_gop=0 / weightp=2 / keyint=240 / keyint_min=23 / scenecut=40 / intra_refresh=0 / rc=2pass / mbtree=0 / bitrate=6500 / ratetol=1.0 / qcomp=0.60 / qpmin=0:0:0 / qpmax=69:69:69 / qpstep=4 / cplxblur=20.0 / qblur=0.5 / ip_ratio=1.40 / pb_ratio=1.30 / aq=4:0.80 / aq-sensitivity=10.00 / aq-factor=1.00:1.00:1.00 / aq2=0 / aq3=0
Language : German
Default : Yes
Forced : No
Audio #1
ID : 2
Format : AC-3
Format/Info : Audio Coding 3
Mode extension : CM (complete main)
Format settings, Endianness : Big
Codec ID : A_AC3
Duration : 1h 34mn
Bit rate mode : Constant
Bit rate : 192 Kbps
Channel(s) : 2 channels
Channel positions : Front: L R
Sampling rate : 48.0 KHz
Bit depth : 16 bits
Compression mode : Lossy
Stream size : 130 MiB (3%)
Title : DVO (Ракурс, Екатеринбург Арт)
Language : Russian
Default : Yes
Forced : No
Audio #2
ID : 3
Format : AC-3
Format/Info : Audio Coding 3
Mode extension : CM (complete main)
Format settings, Endianness : Big
Codec ID : A_AC3
Duration : 1h 34mn
Bit rate mode : Constant
Bit rate : 192 Kbps
Channel(s) : 2 channels
Channel positions : Front: L R
Sampling rate : 48.0 KHz
Bit depth : 16 bits
Compression mode : Lossy
Stream size : 130 MiB (3%)
Title : AVO (Гаврилов)
Language : Russian
Default : No
Forced : No
Audio #3
ID : 4
Format : AC-3
Format/Info : Audio Coding 3
Mode extension : CM (complete main)
Format settings, Endianness : Big
Codec ID : A_AC3
Duration : 1h 34mn
Bit rate mode : Constant
Bit rate : 192 Kbps
Channel(s) : 2 channels
Channel positions : Front: L R
Sampling rate : 48.0 KHz
Bit depth : 16 bits
Compression mode : Lossy
Stream size : 130 MiB (3%)
Title : AVO (Володарский)
Language : Russian
Default : No
Forced : No
Audio #4
ID : 5
Format : AC-3
Format/Info : Audio Coding 3
Mode extension : CM (complete main)
Format settings, Endianness : Big
Codec ID : A_AC3
Duration : 1h 34mn
Bit rate mode : Constant
Bit rate : 192 Kbps
Channel(s) : 2 channels
Channel positions : Front: L R
Sampling rate : 48.0 KHz
Bit depth : 16 bits
Compression mode : Lossy
Stream size : 130 MiB (3%)
Title : Original
Language : English
Default : No
Forced : No
Menu
00:00:00.000 : en:Chapter 01
00:10:01.559 : en:Chapter 02
00:17:08.069 : en:Chapter 03
00:27:04.665 : en:Chapter 04
00:36:13.004 : en:Chapter 05
00:45:53.583 : en:Chapter 06
00:54:57.419 : en:Chapter 07
01:04:02.088 : en:Chapter 08
01:11:48.470 : en:Chapter 09
01:20:08.595 : en:Chapter 10
01:23:53.487 : en:Chapter 11
01:30:33.928 : en:Chapter 12
Скриншоты
Скачать

Скачать торрент!

Как скачивать? · Что такое торрент? · Рейтинг и ограничения

Сайт не распространяет и не хранит электронные версии произведений, а лишь предоставляет доступ к создаваемому пользователями каталогу ссылок на торрент-файлы, которые содержат только списки хеш-сумм

[Профиль] [ЛС]
Показать сообщения:    
Ответить на тему

Текущее время: Сегодня 08:39

Часовой пояс: GMT + 4



Вы не можете начинать темы
Вы не можете отвечать на сообщения
Вы не можете редактировать свои сообщения
Вы не можете удалять свои сообщения
Вы не можете голосовать в опросах
Вы не можете прикреплять файлы к сообщениям
Вы не можете скачивать файлы