Всего одна жизнь – История Фритьофа Нансена / Bare et liv – Historien om Fridtjof Nansen (Сергей Микаэлян) [1968, исторический, драма, биография, DVDRip]

Ответить на тему
 
Автор Сообщение

user ®

Стаж: 7 лет 7 месяцев

Сообщений: 20008

Пост Пост: #1 от 09-Сен-2014 23:05

[Цитировать]


Всего одна жизнь – История Фритьофа Нансена / Bare et liv – Historien om Fridtjof Nansen
Жанр: Исторический, драма, биография
Год выпуска: 1968
Продолжительность: 01:26:04

в раздачу включены субтитры русские на неозвученный в начале фильма отрезок
Режиссёр: Сергей Микаэлян
В ролях: Кнут Уигерт, Веслемой Хаслунд, Рольф Сэнд, Йоахим Кальмейер, Джек Фьелдстад, Кнут Орвиг, Евгений Евстигнеев, Арне Аас, Янис Грантиньш, Рой Бьёрнстад
Описание: В основу фильма положены наиболее значительные этапы жизни Фритьофа Нансена — известного полярного исследователя и путешественника: путешествие на пароходе «Фрам» к Северному полюсу, борьба на дипломатическом поприще за независимость Норвегии, деятельность в Лиге Наций, организация помощи голодающим Поволжья…
Качество видео: [url=http://***/forum/viewtopic.php?t=4162685]DVDRip[/url]
Формат видео: AVI
Видео: 624x368 (1.70:1), 25 fps, XviD build 73 ~1068 kbps avg, 0.19 bit/pixel
Аудио: 48 kHz, AC3 Dolby Digital, 1/0 (C) ch, ~128 kbps


Сравнение
[url=http://***/forum/viewtopic.php?t=1883450]http://***/forum/viewtopic.php?t=1883450[/url]
http://screenshotcomparison.com/comparison/90957
MediaInfo
Общее
Полное имя : J:\Всего.одна.жизнь.1968.dvdrip_[745]_[teko]\Всего.одна.жизнь.1968.dvdrip_[745]_[teko].avi
Формат : AVI
Формат/Информация : Audio Video Interleave
Размер файла : 743 Мбайт
Продолжительность : 1 ч. 26 м.
Общий поток : 1207 Кбит/сек
Программа кодирования : VirtualDubMod 1.5.10.3 | www.virtualdub-fr.org || (build 2550/release)
Библиотека кодирования : VirtualDubMod build 2550/release
Видео
Идентификатор : 0
Формат : MPEG-4 Visual
Профиль формата : Advanced Simple@L5
Параметр BVOP формата : 2
Параметр QPel формата : Нет
Параметр GMC формата : Без точки перехода
Параметр матрицы формата : Выборочная
Идентификатор кодека : XVID
Идентификатор кодека/Подсказка : XviD
Продолжительность : 1 ч. 26 м.
Битрейт : 1069 Кбит/сек
Ширина : 624 пикселя
Высота : 368 пикселей
Соотношение сторон : 1,696
Частота кадров : 25,000 кадров/сек
Цветовое пространство : YUV
Субдискретизация насыщенности : 4:2:0
Битовая глубина : 8 бит
Тип развёртки : Прогрессивная
Метод сжатия : С потерями
Бит/(Пиксели*Кадры) : 0.186
Размер потока : 658 Мбайт (89%)
Библиотека кодирования : XviD 73
Аудио
Идентификатор : 1
Формат : AC-3
Формат/Информация : Audio Coding 3
Расширение режима : CM (complete main)
Параметр Endianness формата : Big
Идентификатор кодека : 2000
Продолжительность : 1 ч. 26 м.
Вид битрейта : Постоянный
Битрейт : 128 Кбит/сек
Каналы : 1 канал
Расположение каналов : Front: C
Частота : 48,0 КГц
Битовая глубина : 16 бит
Метод сжатия : С потерями
Размер потока : 78,8 Мбайт (11%)
Выравнивание : Разделение по промежуткам
Продолжительность промежутка : 40 мс. (1,00 видеокадр)
Время предзагрузки промежутка : 500 мс.
Скриншоты Релиз группы:
[url=http://***/forum/viewtopic.php?t=1677970] [/url]
--
Скачать

Скачать торрент!

Как скачивать? · Что такое торрент? · Рейтинг и ограничения

Сайт не распространяет и не хранит электронные версии произведений, а лишь предоставляет доступ к создаваемому пользователями каталогу ссылок на торрент-файлы, которые содержат только списки хеш-сумм

[Профиль] [ЛС]
Показать сообщения:    
Ответить на тему

Текущее время: Сегодня 14:11

Часовой пояс: GMT + 4



Вы не можете начинать темы
Вы не можете отвечать на сообщения
Вы не можете редактировать свои сообщения
Вы не можете удалять свои сообщения
Вы не можете голосовать в опросах
Вы не можете прикреплять файлы к сообщениям
Вы не можете скачивать файлы