Сказки из тьмы, часть 1 / Tales from the Dark 1 (Фрут Чан / Fruit Chan, Чи-Нгай Ли / Chi-Ngai Lee, Саймон Ям / Simon Yam) [2013, Китай, Гонконг, ужасы, HDRip] AVO [А. Дольский]

Ответить на тему
 
Автор Сообщение

user ®

Стаж: 13 лет

Сообщений: 15071

Пост Пост: #1 от 09-Сен-2014 11:35

[Цитировать]

Сказки из тьмы, часть 1 / Tales from the Dark 1- -Страна: Китай, Гонконг
Жанр: ужасы
Год выпуска: 2013
Продолжительность: 01:52:46-Перевод: Авторский (одноголосый закадровый) [А. Дольский]-Cубтитры: нет
Оригинальная аудиодорожка: нет
Режиссер: Фрут Чан / Fruit Chan, Чи-Нгай Ли / Chi-Ngai Lee, Саймон Ям / Simon Yam
В ролях: Саймон Ям, Дженни Чан, Дада Чан, Келли Чен, Тони Люн Ка Фай, Черри Нган, Шоу Йин Йин
Описание: Альманах, состоящий из трех новелл, снятых по рассказам Лилиан Ли.
«Украденные вещи»
Бедные беднеют, богатые богатеют. Разве может что-то измениться после смерти?
Безработный Гуань решил поправить свои дела, продавая родственникам украденные урны с прахом.
Все шло гладко, пока не раздался таинственный звонок…
«Слово на ладони»
Хо, специалист по фэн-шую и хиромант, лечит людей музыкой. Но дела идут все хуже, и он вынужден закрыть свой салон.
К тому же к нему вернулась способность, от которой, как он надеялся, ему удалось избавиться. Хо видит призраков.
В последний день работы к нему в салон пришла девушка, которая не хотела разжимать левую руку…
«Пробуждение насекомых»
27 января по лунному календарю и 5 марта по западному календарю начинается один из 24 сезонов года, называемый «цзин чжэ» - «пробуждение насекомых после спячки».
Чжу, гадалка в Гонконге, которая зарабатывает деньги проклятьями, принимает последнюю посетительницу. Девушка хочет наказать четырех человек. Но удастся ли это ей? (c) julz_nsk
Релиз от -
Сэмпл: http://multi-up.com/997559
Качество видео: HDRip
Формат видео: AVI
Видео: MPEG-4 Visual at 791 Кбит/сек; 688 x 288 (2.389) at 24.000 fps
Аудио: MPEG Audio at 128 Кбит/сек; 2 канала, 48,0 КГц
Автор -
MediaInfo
Общее
Полное имя : D:\Фильмы\Азиатские\Сказки из тьмы ч-1\Tales from the Dark.vol 1.2013.HDRip.XviD.745MB. rip by [Assassin's Creed].avi
Формат : AVI
Формат/Информация : Audio Video Interleave
Размер файла : 748 Мбайт
Продолжительность : 1 ч. 52 м.
Общий поток : 928 Кбит/сек
Программа кодирования : VirtualDubMod 1.5.10.3 | www.virtualdub-fr.org || (build 2550/release)
Библиотека кодирования : VirtualDubMod build 2550/release
Видео
Идентификатор : 0
Формат : MPEG-4 Visual
Профиль формата : Advanced Simple@L5
Параметр BVOP формата : 1
Параметр QPel формата : Нет
Параметр GMC формата : Без точки перехода
Параметр матрицы формата : Default (MPEG)
Идентификатор кодека : XVID
Идентификатор кодека/Подсказка : XviD
Продолжительность : 1 ч. 52 м.
Битрейт : 791 Кбит/сек
Ширина : 688 пикселей
Высота : 288 пикселей
Соотношение сторон : 2,40:1
Частота кадров : 24,000 кадра/сек
Цветовое пространство : YUV
Субдискретизация насыщенности : 4:2:0
Битовая глубина : 8 бит
Тип развёртки : Прогрессивная
Метод сжатия : С потерями
Бит/(Пиксели*Кадры) : 0.166
Размер потока : 638 Мбайт (85%)
Библиотека кодирования : XviD 1.2.1 (UTC 2008-12-04)
Аудио
Идентификатор : 1
Формат : MPEG Audio
Версия формата : Version 1
Профиль формата : Layer 3
Идентификатор кодека : 55
Идентификатор кодека/Подсказка : MP3
Продолжительность : 1 ч. 52 м.
Вид битрейта : Постоянный
Битрейт : 128 Кбит/сек
Каналы : 2 канала
Частота : 48,0 КГц
Метод сжатия : С потерями
Размер потока : 103 Мбайт (14%)
Выравнивание : Соединение по промежуткам
Продолжительность промежутка : 42 мс. (1,00 видеокадр)
Время предзагрузки промежутка : 504 мс.
Библиотека кодирования : LAME3.99r
Настройки программы : -m s -V 4 -q 2 -lowpass 17 -b 128
Скриншот c названием фильма Скриншоты
Скачать

Скачать торрент! Сказки из тьмы, часть 1 / Tales from the Dark 1 (Фрут Чан / Fruit Chan, Чи-Нгай Ли / Chi-Ngai Lee, Саймон Ям / Simon Yam) [2013, Китай, Гонконг, ужасы, HDRip] AVO [А. Дольский]

Как скачивать? · Что такое торрент? · Рейтинг и ограничения

Сайт не распространяет и не хранит электронные версии произведений, а лишь предоставляет доступ к создаваемому пользователями каталогу ссылок на торрент-файлы, которые содержат только списки хеш-сумм

[Профиль] [ЛС]
Показать сообщения:    
Ответить на тему

Текущее время: Сегодня 11:05

Часовой пояс: GMT + 4



Вы не можете начинать темы
Вы не можете отвечать на сообщения
Вы не можете редактировать свои сообщения
Вы не можете удалять свои сообщения
Вы не можете голосовать в опросах
Вы не можете прикреплять файлы к сообщениям
Вы не можете скачивать файлы