Капитан Рон / Captain Ron (Том Эберхардт / Thom Eberhardt) [1992, США, комедия, приключения, семейный, WEB-DL 720p] MVO (1 канал) + DVO (Видеосервис) + AVO (Михалёв) + Sub Eng + Original Eng

Ответить на тему
 
Автор Сообщение

user ®

Стаж: 7 лет 7 месяцев

Сообщений: 20008

Пост Пост: #1 от 09-Сен-2014 02:05

[Цитировать]

Капитан Рон / Captain Ron
Страна: США
Жанр: комедия, приключения, семейный
Год выпуска: 1992
Продолжительность: 01:40:05
Перевод 1: Профессиональный (многоголосый закадровый) 1 канал
Перевод 2: Профессиональный (двухголосый закадровый) Видеосервис
Перевод 3: Авторский (одноголосый закадровый) Алексей Михалёв
Cубтитры: английские
Оригинальная аудиодорожка: английский
Режиссер: Том Эберхардт / Thom Eberhardt
В ролях: Курт Рассел, Мартин Шорт, Мэри Кэй Плэйс, Бенжамин Салисбери, Медоу Систо, Саншайн Логроньо, Хорхе Луис Рамос, Дж.А. Престон, Таня Солер, Рауль Эстела...
Описание: Отец семейства Мартин Харви получает в наследство настоящую яхту… полусгнившее старое корыто, на которое не то что подняться — смотреть страшно. Но неунывающий Мартин решает отправиться на ней в дальнее плавание. Осталось только найти того, кто окажется вполне не в своем уме, чтобы принять командование над этим летучим голландцем.
И тогда на пристани появляется странный незнакомец, настоящий морской волк, только немного потрепанный штормами. Он назвался «Капитаном Роном», и со словами «что починится — починим в море, а суждено потонуть — потонем», созвал всех наверх. И вот корабль Харви, напоминающий Титаник после катастрофы, отправляется навстречу опасностям. На мостике — великолепный Рон. А с таким капитаном и айсберг не нужен.
Доп. информация: перевод Михалева с раздачи _int_, перевод 1 канала с раздачи Scarabey, синхронизация переводов - Dreven.
Оцифровка VHS с переводом Видеосервиса - Fikaloid, синхронизация - team_6strun.
Сэмпл: http://multi-up.com/997227
Тип релиза: WEB-DL 720p
Контейнер: MKV
Видео: 1280x718 (16:9), 23.976 fps, AVC, ~3930 Kbps, 0.178 bits/pixel
Аудио 1: Russian, 48.0 KHz, AC3, 2 ch, 128 Kbps - 1 канал
Аудио 2: Russian, 48.0 KHz, AC3, 2 ch, 192 Kbps - Видеосервис
Аудио 3: Russian, 48.0 KHz, AC3, 2 ch, 192 Kbps - Алексей Михалёв
Аудио 4: English, 48.0 KHz, AC3, 6 ch, 384 Kbps

MediaInfo
General
Unique ID : 231198896154249104649186359098443375591 (0xADEF49A819F79BD782CFF743CDE523E7)
Complete name : C:\Captain Ron.mkv
Format : Matroska
Format version : Version 4 / Version 2
File size : 3.44 GiB
Duration : 1h 40mn
Overall bit rate : 4 924 Kbps
Encoded date : UTC 2014-09-06 15:40:40
Writing application : mkvmerge v7.1.0 ('Good Love') 64bit built on Jul 27 2014 13:06:55
Writing library : libebml v1.3.0 + libmatroska v1.4.1
DURATION : 01:40:05.024000000
NUMBER_OF_FRAMES : 187657
NUMBER_OF_BYTES : 144120576
_STATISTICS_WRITING_APP : mkvmerge v7.1.0 ('Good Love') 64bit built on Jul 27 2014 13:06:55
_STATISTICS_WRITING_DATE_UTC : 2014-09-06 15:40:40
_STATISTICS_TAGS : BPS DURATION NUMBER_OF_FRAMES NUMBER_OF_BYTES
Video
ID : 1
Format : AVC
Format/Info : Advanced Video Codec
Format profile : High@L3.1
Format settings, CABAC : No
Format settings, ReFrames : 2 frames
Codec ID : V_MPEG4/ISO/AVC
Duration : 1h 40mn
Bit rate : 3 930 Kbps
Width : 1 280 pixels
Height : 718 pixels
Display aspect ratio : 16:9
Frame rate mode : Constant
Frame rate : 23.976 fps
Color space : YUV
Chroma subsampling : 4:2:0
Bit depth : 8 bits
Scan type : Progressive
Bits/(Pixel*Frame) : 0.178
Stream size : 2.75 GiB (80%)
Language : English
Default : Yes
Forced : No
Color primaries : BT.709
Transfer characteristics : BT.709
Matrix coefficients : BT.709
Audio #1
ID : 2
Format : AC-3
Format/Info : Audio Coding 3
Mode extension : CM (complete main)
Format settings, Endianness : Big
Codec ID : A_AC3
Duration : 1h 40mn
Bit rate mode : Constant
Bit rate : 128 Kbps
Channel(s) : 2 channels
Channel positions : Front: L R
Sampling rate : 48.0 KHz
Bit depth : 16 bits
Compression mode : Lossy
Stream size : 91.6 MiB (3%)
Title : 1 канал
Language : Russian
Default : Yes
Forced : No
Audio #2
ID : 3
Format : AC-3
Format/Info : Audio Coding 3
Mode extension : CM (complete main)
Format settings, Endianness : Big
Codec ID : A_AC3
Duration : 1h 40mn
Bit rate mode : Constant
Bit rate : 192 Kbps
Channel(s) : 2 channels
Channel positions : Front: L R
Sampling rate : 48.0 KHz
Bit depth : 16 bits
Compression mode : Lossy
Stream size : 137 MiB (4%)
Title : Видеосервис
Language : Russian
Default : No
Forced : No
Audio #3
ID : 4
Format : AC-3
Format/Info : Audio Coding 3
Mode extension : CM (complete main)
Format settings, Endianness : Big
Codec ID : A_AC3
Duration : 1h 40mn
Bit rate mode : Constant
Bit rate : 192 Kbps
Channel(s) : 2 channels
Channel positions : Front: L R
Sampling rate : 48.0 KHz
Bit depth : 16 bits
Compression mode : Lossy
Stream size : 137 MiB (4%)
Title : Алексей Михалёв
Language : Russian
Default : No
Forced : No
Audio #4
ID : 5
Format : AC-3
Format/Info : Audio Coding 3
Mode extension : CM (complete main)
Format settings, Endianness : Big
Codec ID : A_AC3
Duration : 1h 40mn
Bit rate mode : Constant
Bit rate : 384 Kbps
Channel(s) : 6 channels
Channel positions : Front: L C R, Side: L R, LFE
Sampling rate : 48.0 KHz
Bit depth : 16 bits
Compression mode : Lossy
Stream size : 275 MiB (8%)
Language : English
Default : No
Forced : No
Text
ID : 6
Format : UTF-8
Codec ID : S_TEXT/UTF8
Codec ID/Info : UTF-8 Plain Text
Language : English
Default : No
Forced : No
Menu
00:00:00.000 : en:Opening Titles/Someday
00:11:48.000 : en:A Classic
00:16:03.000 : en:Call Me Captain Ron
00:23:16.000 : en:The Adventure Begins
00:32:26.000 : en:Make The Game Interesting
00:38:47.000 : en:The Land Of Voodoo
00:47:15.000 : en:Pirates Of The Caribbean
00:56:53.000 : en:Worth Getting Lost
01:05:20.000 : en:Carnival
01:14:36.000 : en:Welcome To Cuba
01:25:34.000 : en:Nothing Can Stop Us Now
01:33:47.000 : en:Miami/End Credits
Скриншоты
Скачать

Скачать торрент!

Как скачивать? · Что такое торрент? · Рейтинг и ограничения

Сайт не распространяет и не хранит электронные версии произведений, а лишь предоставляет доступ к создаваемому пользователями каталогу ссылок на торрент-файлы, которые содержат только списки хеш-сумм

[Профиль] [ЛС]
Показать сообщения:    
Ответить на тему

Текущее время: Сегодня 15:51

Часовой пояс: GMT + 4



Вы не можете начинать темы
Вы не можете отвечать на сообщения
Вы не можете редактировать свои сообщения
Вы не можете удалять свои сообщения
Вы не можете голосовать в опросах
Вы не можете прикреплять файлы к сообщениям
Вы не можете скачивать файлы