Боже, благослови Америку / God Bless America (Бобкэт Голдтуэйт / Bobcat Goldthwait) [2011, США, комедия, криминал, BDRemux 1080p] DVO + DVO (ozz tv) + Sub Rus, Eng + Original Eng + Commentary

Ответить на тему
 
Автор Сообщение

user ®

Стаж: 7 лет 7 месяцев

Сообщений: 20008

Пост Пост: #1 от 09-Сен-2014 02:05

[Цитировать]

Боже, благослови Америку / God Bless America
Страна: США
Студия: Darko Entertainment
Жанр: Комедия, Криминал
Год выпуска: 2011
Продолжительность: 01:44:22
Перевод 1: Профессиональный (двухголосый закадровый)
Перевод 2: Профессиональный (двухголосый закадровый) ozz tv
Cубтитры: русские (3 варианта), английские
Оригинальная аудиодорожка: английский
Режиссер: Бобкэт Голдтуэйт / Bobcat Goldthwait
В ролях: Джоэл Мюррей, Тара Барр, Маккензи Брук Смит, Мелинда Пейдж Хэмилтон, Рич МакДональд, Мэдди Хассон, Ларри Миллер, Дори Бартон, Трэвис Уэстер, Лорен Бенц Филлипс
Описание: Фрэнк страшно устал от того, что его окружают алчные, тупые и равнодушные недоноски, коих усердно плодит американская земля. Поэтому, узнав, что у него опухоль мозга, он берет в руки оружие и, прихватив с собой боевую подругу Рокси, едет вбивать в сограждан разумное, доброе, вечное - с помощью свинца...
Сэмпл: http://rusfolder.com/41659659
Тип релиза: BDRemux 1080p
Контейнер: MKV
Видео: MPEG-4 AVC Video 33992 kbps 1080p / 23.976 fps / 16:9 / High Profile 4.1
Аудио 1: Russian, AC3, 2 channels, 48.0 KHz, 448 kbps - Двухголосый
Аудио 2: Russian, DTS, 6 channels, 48.0 KHz, 1509 kbps - Двухголосый Ozz TV
Аудио 3: English, DTS-HD MA 5.1 ,48 kHz / 3615 kbps / 24-bit (DTS Core: 5.1 / 48 kHz / 1509 kbps / 24-bit) - Оригинал
Аудио 4: English, AC3, 2 channels, 48.0 KHz, 224 kbps - Комментарии
Формат субтитров: softsub (SRT)
MediaInfo
General
Unique ID : 223789004163957130874089572040277723376 (0xA85C31C673DE1ED89D4ED0A5E83788F0)
Complete name : D:\WWE\Movies\God Bless America\God Bless America.mkv
Format : Matroska
Format version : Version 2
File size : 28.9 GiB
Duration : 1h 44mn
Overall bit rate mode : Variable
Overall bit rate : 39.6 Mbps
Movie name : God_Bless_America[release_by_Doktor_S]
Encoded date : UTC 2014-09-06 03:55:14
Writing application : mkvmerge v4.0.0 ('The Stars were mine') сборка от Jun 6 2010 16:18:42
Writing library : libebml v1.0.0 + libmatroska v1.0.0
Video
ID : 1
Format : AVC
Format/Info : Advanced Video Codec
Format profile : High@L4.1
Format settings, CABAC : Yes
Format settings, ReFrames : 4 frames
Codec ID : V_MPEG4/ISO/AVC
Duration : 1h 44mn
Bit rate mode : Variable
Maximum bit rate : 38.0 Mbps
Width : 1 920 pixels
Height : 1 080 pixels
Display aspect ratio : 16:9
Frame rate mode : Constant
Frame rate : 23.976 fps
Color space : YUV
Chroma subsampling : 4:2:0
Bit depth : 8 bits
Scan type : Progressive
Default : No
Forced : No
Audio #1
ID : 6
Format : AC-3
Format/Info : Audio Coding 3
Mode extension : CM (complete main)
Format settings, Endianness : Big
Codec ID : A_AC3
Duration : 1h 44mn
Bit rate mode : Constant
Bit rate : 448 Kbps
Channel(s) : 2 channels
Channel positions : Front: L R
Sampling rate : 48.0 KHz
Bit depth : 16 bits
Compression mode : Lossy
Stream size : 334 MiB (1%)
Title : dvo
Language : Russian
Default : Yes
Forced : No
Audio #2
ID : 7
Format : DTS
Format/Info : Digital Theater Systems
Mode : 16
Format settings, Endianness : Big
Codec ID : A_DTS
Duration : 1h 44mn
Bit rate mode : Constant
Bit rate : 1 509 Kbps
Channel(s) : 6 channels
Channel positions : Front: L C R, Side: L R, LFE
Sampling rate : 48.0 KHz
Bit depth : 24 bits
Compression mode : Lossy
Stream size : 1.10 GiB (4%)
Title : dvo - ozztv
Language : Russian
Default : No
Forced : No
Audio #3
ID : 8
Format : DTS
Format/Info : Digital Theater Systems
Format profile : MA / Core
Mode : 16
Format settings, Endianness : Big
Codec ID : A_DTS
Duration : 1h 44mn
Bit rate mode : Variable
Bit rate : Unknown / 1 509 Kbps
Channel(s) : 6 channels
Channel positions : Front: L C R, Side: L R, LFE
Sampling rate : 48.0 KHz
Bit depth : 24 bits
Compression mode : Lossless / Lossy
Language : English
Default : No
Forced : No
Audio #4
ID : 9
Format : AC-3
Format/Info : Audio Coding 3
Mode extension : CM (complete main)
Format settings, Endianness : Big
Codec ID : A_AC3
Duration : 1h 44mn
Bit rate mode : Constant
Bit rate : 224 Kbps
Channel(s) : 2 channels
Channel positions : Front: L R
Sampling rate : 48.0 KHz
Bit depth : 16 bits
Compression mode : Lossy
Stream size : 167 MiB (1%)
Title : commentary
Language : English
Default : No
Forced : No
Text #1
ID : 2
Format : UTF-8
Codec ID : S_TEXT/UTF8
Codec ID/Info : UTF-8 Plain Text
Title : trasfer[perevod] KingFisheR, edition[redakciya] Stvstas
Language : Russian
Default : No
Forced : No
Text #2
ID : 3
Format : UTF-8
Codec ID : S_TEXT/UTF8
Codec ID/Info : UTF-8 Plain Text
Title : transfer[perevod] Yury Grishin
Language : Russian
Default : No
Forced : No
Text #3
ID : 4
Format : UTF-8
Codec ID : S_TEXT/UTF8
Codec ID/Info : UTF-8 Plain Text
Title : Lepra's transfer (Sovereign Leprozory)
Language : Russian
Default : No
Forced : No
Text #4
ID : 5
Format : UTF-8
Codec ID : S_TEXT/UTF8
Codec ID/Info : UTF-8 Plain Text
Title : English
Language : English
Default : No
Forced : No
Menu
00:00:00.000 : en:00:00:00.000
00:06:34.936 : en:00:06:34.936
00:18:07.420 : en:00:18:07.420
00:27:42.619 : en:00:27:42.619
00:37:28.121 : en:00:37:28.121
00:45:35.024 : en:00:45:35.024
00:53:57.067 : en:00:53:57.067
01:11:50.431 : en:01:11:50.431
01:18:16.567 : en:01:18:16.567
01:28:09.618 : en:01:28:09.618
01:31:49.921 : en:01:31:49.921
01:39:28.671 : en:01:39:28.671
Скриншоты
Скачать

Скачать торрент!

Как скачивать? · Что такое торрент? · Рейтинг и ограничения

Сайт не распространяет и не хранит электронные версии произведений, а лишь предоставляет доступ к создаваемому пользователями каталогу ссылок на торрент-файлы, которые содержат только списки хеш-сумм

[Профиль] [ЛС]
Показать сообщения:    
Ответить на тему

Текущее время: Сегодня 08:58

Часовой пояс: GMT + 4



Вы не можете начинать темы
Вы не можете отвечать на сообщения
Вы не можете редактировать свои сообщения
Вы не можете удалять свои сообщения
Вы не можете голосовать в опросах
Вы не можете прикреплять файлы к сообщениям
Вы не можете скачивать файлы