Хвост / Thale (Александер Нордос / Aleksander Nordaas) [2012, Норвегия, ужасы, фэнтези, триллер, детектив, BDRip 720p] MVO (ivi) + VO (den904) + Original Nor + Sub (Eng, Nor)

Ответить на тему
 
Автор Сообщение

user ®

Стаж: 7 лет 7 месяцев

Сообщений: 20008

Пост Пост: #1 от 08-Сен-2014 14:00

[Цитировать]

Хвост / Thale
Страна: Норвегия
Жанр: ужасы, фэнтези, триллер, детектив
Год выпуска: 2012
Продолжительность: 01:18:00
Перевод: Профессиональный (многоголосый закадровый) ivi
Перевод 2: Одноголосый закадровый den904 по субтитрам Janetta
Cубтитры: английские, норвежские
Оригинальная аудиодорожка: Норвежский
Режиссер: Александер Нордос / Aleksander Nordaas
В ролях: Силье Рейномо, Эрленд Нервольд, Йон Сигве Скард, Мортен Андресен, Роланд Астранд, Суннива Лиен
Описание: Фильм основан на мифическом персонаже из норвежского фольклора, которого называют Хулдра. Согласно мифу Хулдра — прекрасная женщина, живущая в лесу, соблазняющая и убивающая мужчин. Она поет красивые песни, манит их к себе в глубь леса прекрасным телом, и затем убивает. Узнать ее можно лишь по наличию коровьего хвоста…
Кинопоиск|Imdb|Сэмпл
Тип релиза: BDRip 720p
Контейнер: MKV
Видео: MPEG4 Video (H264) 1280x720 24fps 8 520 Kbps
Аудио: Русский AC-3 2 ch 48.0 KHz 192 Kbps
Аудио 2: Русский DTS 6 ch 48.0 KHz 1 509 Kbps
Аудио 3: Норвежский DTS 6 ch 48.0 KHz 1 509 Kbps
Формат субтитров: softsub (SRT)
Звук взят [url=http://***/forum/viewtopic.php?t=4414929]от сюда[/url] Thx GORENOISE
MediaInfo
General
Unique ID : 215207082659431694378153375965909343958 (0xA1E76060964AC4E191E04BB95383DED6)
Complete name : C:\Users\Вика\Desktop\Thale.2012.720p.BDRip.x264.mkv
Format : Matroska
Format version : Version 4 / Version 2
File size : 7.50 GiB
Duration : 1h 18mn
Overall bit rate mode : Variable
Overall bit rate : 13.8 Mbps
Encoded date : UTC 2014-09-08 05:49:52
Writing application : mkvmerge v6.9.1 ('Blue Panther') 64bit built on Apr 18 2014 18:23:38
Writing library : libebml v1.3.0 + libmatroska v1.4.1
Video
ID : 1
Format : AVC
Format/Info : Advanced Video Codec
Format profile : High@L4.1
Format settings, CABAC : Yes
Format settings, ReFrames : 9 frames
Codec ID : V_MPEG4/ISO/AVC
Duration : 1h 18mn
Nominal bit rate : 8 520 Kbps
Width : 1 280 pixels
Height : 720 pixels
Display aspect ratio : 16:9
Frame rate mode : Constant
Frame rate : 24.000 fps
Color space : YUV
Chroma subsampling : 4:2:0
Bit depth : 8 bits
Scan type : Progressive
Bits/(Pixel*Frame) : 0.385
Writing library : x264 core 129 r2230 1cffe9f
Encoding settings : cabac=1 / ref=9 / deblock=1:-3:-3 / analyse=0x3:0x133 / me=umh / subme=10 / psy=1 / psy_rd=1.00:0.10 / mixed_ref=1 / me_range=48 / chroma_me=1 / trellis=2 / 8x8dct=1 / cqm=0 / deadzone=21,11 / fast_pskip=0 / chroma_qp_offset=-3 / threads=12 / lookahead_threads=2 / sliced_threads=0 / nr=0 / decimate=0 / interlaced=0 / bluray_compat=0 / constrained_intra=0 / bframes=8 / b_pyramid=2 / b_adapt=2 / b_bias=0 / direct=3 / weightb=1 / open_gop=0 / weightp=2 / keyint=360 / keyint_min=2 / scenecut=40 / intra_refresh=0 / rc_lookahead=60 / rc=2pass / mbtree=1 / bitrate=8520 / ratetol=1.0 / qcomp=0.70 / qpmin=0 / qpmax=69 / qpstep=4 / cplxblur=20.0 / qblur=0.5 / vbv_maxrate=50000 / vbv_bufsize=30000 / nal_hrd=none / ip_ratio=1.10 / aq=2:1.00
Language : English
Default : No
Forced : No
Audio #1
ID : 2
Format : AC-3
Format/Info : Audio Coding 3
Mode extension : CM (complete main)
Format settings, Endianness : Big
Codec ID : A_AC3
Duration : 1h 18mn
Bit rate mode : Constant
Bit rate : 192 Kbps
Channel count : 2 channels
Channel positions : Front: L R
Sampling rate : 48.0 KHz
Bit depth : 16 bits
Compression mode : Lossy
Stream size : 107 MiB (1%)
Title : IVI MVO
Language : Russian
Default : Yes
Forced : No
Audio #2
ID : 3
Format : DTS
Format/Info : Digital Theater Systems
Format profile : MA / Core
Mode : 16
Format settings, Endianness : Big
Codec ID : A_DTS
Duration : 1h 18mn
Bit rate mode : Variable
Bit rate : Unknown / 1 509 Kbps
Channel count : 6 channels
Channel positions : Front: L C R, Side: L R, LFE
Sampling rate : 48.0 KHz
Bit depth : 24 bits
Compression mode : Lossless / Lossy
Title : Den904 VO
Language : Russian
Default : No
Forced : No
Audio #3
ID : 4
Format : DTS
Format/Info : Digital Theater Systems
Mode : 16
Format settings, Endianness : Big
Codec ID : A_DTS
Duration : 1h 18mn
Bit rate mode : Constant
Bit rate : 1 509 Kbps
Channel count : 6 channels
Channel positions : Front: L C R, Side: L R, LFE
Sampling rate : 48.0 KHz
Bit depth : 16 bits
Compression mode : Lossy
Stream size : 842 MiB (11%)
Language : Norwegian
Default : No
Forced : No
Text #1
ID : 5
Format : UTF-8
Codec ID : S_TEXT/UTF8
Codec ID/Info : UTF-8 Plain Text
Language : English
Default : No
Forced : No
Text #2
ID : 6
Format : UTF-8
Codec ID : S_TEXT/UTF8
Codec ID/Info : UTF-8 Plain Text
Language : Norwegian
Default : No
Forced : No
Скриншоты
Скачать

Скачать торрент!

Как скачивать? · Что такое торрент? · Рейтинг и ограничения

Сайт не распространяет и не хранит электронные версии произведений, а лишь предоставляет доступ к создаваемому пользователями каталогу ссылок на торрент-файлы, которые содержат только списки хеш-сумм

[Профиль] [ЛС]
Показать сообщения:    
Ответить на тему

Текущее время: Сегодня 17:44

Часовой пояс: GMT + 4



Вы не можете начинать темы
Вы не можете отвечать на сообщения
Вы не можете редактировать свои сообщения
Вы не можете удалять свои сообщения
Вы не можете голосовать в опросах
Вы не можете прикреплять файлы к сообщениям
Вы не можете скачивать файлы