День драфта / Draft Day (Айвен Райтман / Ivan Reitman) [2014, США, Драма, спорт, HDRip] MVO (Savetig Studios)

Ответить на тему
 
Автор Сообщение

user ®

Стаж: 7 лет 7 месяцев

Сообщений: 20008

Пост Пост: #1 от 07-Сен-2014 22:45

[Цитировать]

День драфта / Draft Day- Год выпуска: 2014
Выпущено: США / Summit Entertainment
Жанр: драма, спорт
Продолжительность: 01:50:00
Перевод: Любительский (многоголосый закадровый) Savetig Studios
Cубтитры: нет-Режиссер:
Айвен Райтман / Ivan Reitman-В ролях:
Кевин Костнер, Дженнифер Гарнер, Дэнис Лири, Фрэнк Ланджелла, Терри Крюс, Сэм Эллиотт, Эллен Бёрстин, Чедвик Боузман, Крис Берман, Дэйв Дональдсон, Патрик Ст. Эсприт-Описание:
Главный герой картины — менеджер Cleveland Browns, пытающийся привлечь в свою команду перспективного игрока…-| IMDB | КиноПоиск | Сэмпл |-Качество: HDRip [BDRip | 1080p | Rustorka]
Формат: AVI
Видео: 720x304 (2.37:1), 23.976 fps, XviD build 73 ~1441 kbps avg, 0.27 bit/pixel
Аудио: 48 kHz, AC3 Dolby Digital, 3/2 (L,C,R,l,r) + LFE ch, ~448.00 kbps avg
-Скриншоты MediaInfo
General
Complete name                            : D:\Den`_drafta_2014_HDRip_by_Dalemake.avi
Format                                   : AVI
Format/Info                              : Audio Video Interleave
File size                                : 1.46 GiB
Duration                                 : 1h 50mn
Overall bit rate                         : 1 899 Kbps
Writing application                      : VirtualDubMod 1.5.10.3 | www.virtualdub-fr.org || (build 2550/release)
Writing library                          : VirtualDubMod build 2550/release
Video
ID                                       : 0
Format                                   : MPEG-4 Visual
Format profile                           : Advanced Simple@L5
Format settings, BVOP                    : 1
Format settings, QPel                    : No
Format settings, GMC                     : No warppoints
Format settings, Matrix                  : Custom
Codec ID                                 : XVID
Codec ID/Hint                            : XviD
Duration                                 : 1h 50mn
Bit rate                                 : 1 441 Kbps
Width                                    : 720 pixels
Height                                   : 304 pixels
Display aspect ratio                     : 2.35:1
Frame rate                               : 23.976 fps
Color space                              : YUV
Chroma subsampling                       : 4:2:0
Bit depth                                : 8 bits
Scan type                                : Progressive
Compression mode                         : Lossy
Bits/(Pixel*Frame)                       : 0.275
Stream size                              : 1.11 GiB (76%)
Writing library                          : XviD 73
Audio
ID                                       : 1
Format                                   : AC-3
Format/Info                              : Audio Coding 3
Mode extension                           : CM (complete main)
Format settings, Endianness              : Big
Codec ID                                 : 2000
Duration                                 : 1h 50mn
Bit rate mode                            : Constant
Bit rate                                 : 448 Kbps
Channel(s)                               : 6 channels
Channel positions                        : Front: L C R, Side: L R, LFE
Sampling rate                            : 48.0 KHz
Bit depth                                : 16 bits
Compression mode                         : Lossy
Stream size                              : 352 MiB (24%)
Alignment                                : Split accross interleaves
Interleave, duration                     : 42 ms (1.00 video frame)
Interleave, preload duration             : 500 ms
-
Скачать

Скачать торрент!

Как скачивать? · Что такое торрент? · Рейтинг и ограничения

Сайт не распространяет и не хранит электронные версии произведений, а лишь предоставляет доступ к создаваемому пользователями каталогу ссылок на торрент-файлы, которые содержат только списки хеш-сумм

[Профиль] [ЛС]
Показать сообщения:    
Ответить на тему

Текущее время: Сегодня 15:50

Часовой пояс: GMT + 4



Вы не можете начинать темы
Вы не можете отвечать на сообщения
Вы не можете редактировать свои сообщения
Вы не можете удалять свои сообщения
Вы не можете голосовать в опросах
Вы не можете прикреплять файлы к сообщениям
Вы не можете скачивать файлы