Я солдат / I am soldier (Ронни Томпсон / Ronnie Thompson) [2014, Великобритания, Драма, боевик, HDRip] DVO (студия Zinko) + Original Eng

Ответить на тему
 
Автор Сообщение

user ®

Стаж: 7 лет 7 месяцев

Сообщений: 20008

Пост Пост: #1 от 07-Сен-2014 22:45

[Цитировать]

Я солдат / I am soldier
Страна: Великобритания
Жанр: Драма, боевик
Год выпуска: 2014
Продолжительность: 01:27:57
Перевод: Любительский (двухголосый закадровый) М-Ж (студия Zinko)
Cубтитры: нет
Оригинальная аудиодорожка: английский
Режиссер: Ронни Томпсон / Ronnie Thompson
В ролях: Дункан Кэйси /Duncan Casey/, Ли Чарлз /Lee Charles/, Ноэль Кларк /Noel Clarke/, Филип Десмюль /Philip Desmeules/, Джо Иган /Joe Egan/, Майк Фьюри /Mike Fury/, Том Хьюз /Tom Hughes/
Описание: Многие пытаются попасть в полк британского спецназа SAS, но только лучшие могут это сделать. Сюжет сосредоточится на Микки который пройдет через каждую изнурительную стадию отбора, который не только развивает его физически, но и морально.
Доп. информация:
IMDB
Производство: Lions Gate Home Entertainment UK Ltd
Сэмпл: http://multi-up.com/997174
Качество видео: HDRip (рип с I.Am.Soldier.2014.1080p.BluRay.x264-SONiDO.mkv)
Формат видео: AVI
Видео: Xvid 720x304 24fps 1713 Kbps
Аудио: Dolby AC3 48000Hz stereo 192kbps [Рус]
Аудио 2: Dolby AC3 48000Hz 6ch 448kbps [Eng]
MediaInfo
General
Complete name : H:\I.Am.Soldier.2014.1080p.BluRay.x264-SONiDO [PublicHD]\Ya.soldat.2014.HDrip.XviD.ru-en_25KADR.avi
Format : AVI
Format/Info : Audio Video Interleave
File size : 1.45 GiB
Duration : 1h 27mn
Overall bit rate : 2 367 Kbps
Movie name : Ya.soldat.2014
Original source form/Distributed by : I.Am.Soldier.2014.1080p.BluRay.x264-SONiDO.mkv
Genre : Action
Copyright : 25KADR
Comment : DVO (Zinko studio)
Video
ID : 0
Format : MPEG-4 Visual
Format profile : Advanced Simple@L5
Format settings, BVOP : 2
Format settings, QPel : No
Format settings, GMC : No warppoints
Format settings, Matrix : Default (MPEG)
Muxing mode : Packed bitstream
Codec ID : XVID
Codec ID/Hint : XviD
Duration : 1h 27mn
Bit rate : 1 713 Kbps
Width : 720 pixels
Height : 304 pixels
Display aspect ratio : 2.35:1
Frame rate : 24.000 fps
Color space : YUV
Chroma subsampling : 4:2:0
Bit depth : 8 bits
Scan type : Progressive
Compression mode : Lossy
Bits/(Pixel*Frame) : 0.326
Stream size : 1.05 GiB (72%)
Writing library : XviD 64
Audio #1
ID : 1
Format : AC-3
Format/Info : Audio Coding 3
Mode extension : CM (complete main)
Format settings, Endianness : Big
Codec ID : 2000
Duration : 1h 27mn
Bit rate mode : Constant
Bit rate : 192 Kbps
Channel(s) : 2 channels
Channel positions : Front: L R
Sampling rate : 48.0 KHz
Bit depth : 16 bits
Compression mode : Lossy
Stream size : 121 MiB (8%)
Alignment : Split accross interleaves
Interleave, duration : 42 ms (1.00 video frame)
Interleave, preload duration : 500 ms
Language : Russian
Audio #2
ID : 2
Format : AC-3
Format/Info : Audio Coding 3
Mode extension : CM (complete main)
Format settings, Endianness : Big
Codec ID : 2000
Duration : 1h 27mn
Bit rate mode : Constant
Bit rate : 448 Kbps
Channel(s) : 6 channels
Channel positions : Front: L C R, Side: L R, LFE
Sampling rate : 48.0 KHz
Bit depth : 16 bits
Compression mode : Lossy
Delay relative to video : 28ms
Stream size : 282 MiB (19%)
Alignment : Split accross interleaves
Interleave, duration : 42 ms (1.00 video frame)
Interleave, preload duration : 500 ms
Скриншоты
Скачать

Скачать торрент!

Как скачивать? · Что такое торрент? · Рейтинг и ограничения

Сайт не распространяет и не хранит электронные версии произведений, а лишь предоставляет доступ к создаваемому пользователями каталогу ссылок на торрент-файлы, которые содержат только списки хеш-сумм

[Профиль] [ЛС]
Показать сообщения:    
Ответить на тему

Текущее время: Сегодня 18:34

Часовой пояс: GMT + 4



Вы не можете начинать темы
Вы не можете отвечать на сообщения
Вы не можете редактировать свои сообщения
Вы не можете удалять свои сообщения
Вы не можете голосовать в опросах
Вы не можете прикреплять файлы к сообщениям
Вы не можете скачивать файлы