Дорога на Арлингтон / Arlington Road (Марк Пеллингтон / Mark Pellington) [1999, США, триллер, драма, детектив, BDRip 720p] Dub + DVO + 3 x AVO + Original eng + Sub rus, eng

Ответить на тему
 
Автор Сообщение

user ®

Стаж: 7 лет 7 месяцев

Сообщений: 20008

Пост Пост: #1 от 07-Сен-2014 03:55

[Цитировать]

Дорога на Арлингтон / Arlington Road
Страна: США
Жанр: триллер, драма, детектив
Год выпуска: 1999
Продолжительность: 01:57:44
Перевод#1: Профессиональный (дублированный)
Перевод#2: Профессиональный (двухголосый закадровый)
Перевод#3: Авторский (одноголосый закадровый), Ю. Живов
Перевод#4: Авторский (одноголосый закадровый), Ю. Сербин
Перевод#5: Авторский (одноголосый закадровый), С. Визгунов
Cубтитры: русские, английские
Оригинальная аудиодорожка: английский
Режиссер: Марк Пеллингтон / Mark Pellington
В ролях: Джефф Бриджес, Тим Роббинс, Джоан Кьюсак, Хоуп Дэвис, Роберт Госсетт, Мейсон Гэмбл, Спенсер Трит Кларк, Стенли Андерсон, Вивиан Вайвз, Ли Стрингер
Описание: Интеллигентный профессор Майкл Фарадей, в одиночку воспитывающий своего сына после трагической гибели жены во время рейда ФБР, и не представляет, какой крутой поворот вскоре совершит его судьба. Знакомство с милой соседской семьей помогает Майклу оправиться от потрясения и вернуться к нормальной жизни
Однако чем дольше Майкл общается с новыми друзьями, тем больше необъяснимых сомнений и тревог появляется в его душе. Поймав несколько раз соседа на мелкой лжи, Майкл решает выяснить все об этом человеке. И его открытия оказываются гораздо страшнее, чем он мог себе вообразить...

Исходник: Дорога на Арлингтон / Arlington Road (1999) 1080p BD-Remux
Тип релиза: BDRip 720p (от E76) | sample
Контейнер: MKV
Видео кодек: x264
Видео: AVC 1280x534 (2.40:1), 23.976 fps, ~6650 Kbps, 0.40 bit/pixel
Аудио #1: Russian AC3 2ch 48kHz 192Kbps | Dub
Аудио #2: Russian AC3 6ch 48kHz 640Kbps | MVO
Аудио #3: Russian AC3 6ch 48kHz 640Kbps | AVO Живов
Аудио #4: Russian AC3 6ch 48kHz 640Kbps | AVO Сербин
Аудио #5: Russian AC3 6ch 48kHz 640Kbps | AVO Визгунов
Аудио #6: English AC3 6ch 48kHz 640Kbps | Original
Формат субтитров: softsub (SRT)
Главы: есть

MediaInfo | x264
x264
x264 [info]: frame I:1041 Avg QP:13.97 size: 96402
x264 [info]: frame P:32882 Avg QP:15.53 size: 56870
x264 [info]: frame B:135460 Avg QP:17.16 size: 28872
x264 [info]: consecutive B-frames: 1.8% 1.9% 5.3% 11.3% 9.7% 56.1% 3.6% 1.4% 1.8%
0.5% 0.5% 5.1% 0.4% 0.5% 0.4%
x264 [info]: kb/s:6659.94
General
Complete name : E:\...\Arlington.Road.1999.720p.BluRay.x264.5xRus.Eng-E76.mkv
Format : Matroska
Format version : Version 2
File size : 8.27 GiB
Duration : 1h 57mn
Overall bit rate : 10.1 Mbps
Movie name : Arlington.Road.1999.720p.BluRay.x264.5xRus.Eng-E76
Encoded date : UTC 2014-08-31 21:50:01
Writing application : mkvmerge v7.0.0 ('Where We Going') 64bit built on Jun 9 2014 15:16:27
Writing library : libebml v1.3.0 + libmatroska v1.4.1
Video
ID : 1
Format : AVC
Format/Info : Advanced Video Codec
Format profile : High@L4.1
Format settings, CABAC : Yes
Format settings, ReFrames : 10 frames
Codec ID : V_MPEG4/ISO/AVC
Duration : 1h 57mn
Bit rate : 6 463 Kbps
Width : 1 280 pixels
Height : 534 pixels
Display aspect ratio : 2.40:1
Frame rate mode : Constant
Frame rate : 23.976 fps
Color space : YUV
Chroma subsampling : 4:2:0
Bit depth : 8 bits
Scan type : Progressive
Bits/(Pixel*Frame) : 0.394
Stream size : 5.32 GiB (64%)
Title : Arlington Road (1999)
Writing library : x264 core 142 r2431kMod ac76440
Encoding settings : cabac=1 / ref=10 / deblock=1:-3:-3 / analyse=0x3:0x113 / me=umh / subme=11 / psy=1 / fade_compensate=0.00 / psy_rd=1.05:0.00 / mixed_ref=1 / me_range=48 / chroma_me=1 / trellis=2 / 8x8dct=1 / cqm=0 / deadzone=21,11 / fast_pskip=1 / chroma_qp_offset=-2 / threads=6 / lookahead_threads=1 / sliced_threads=0 / nr=0 / decimate=1 / interlaced=0 / bluray_compat=0 / constrained_intra=0 / fgo=0 / bframes=14 / b_pyramid=2 / b_adapt=2 / b_bias=0 / direct=1 / weightb=1 / open_gop=0 / weightp=2 / keyint=240 / keyint_min=23 / scenecut=40 / intra_refresh=0 / rc_lookahead=0 / rc=crf / mbtree=0 / crf=17.2500 / qcomp=0.70 / qpmin=0 / qpmax=69 / qpstep=4 / vbv_maxrate=62500 / vbv_bufsize=78125 / crf_max=0.0 / nal_hrd=none / filler=0 / ip_ratio=1.40 / pb_ratio=1.25 / aq=3:0.90
Language : English
Default : Yes
Forced : No
Matrix coefficients : BT.709
Audio #1
ID : 2
Format : AC-3
Format/Info : Audio Coding 3
Mode extension : CM (complete main)
Format settings, Endianness : Big
Codec ID : A_AC3
Duration : 1h 57mn
Bit rate mode : Constant
Bit rate : 192 Kbps
Channel(s) : 2 channels
Channel positions : Front: L R
Sampling rate : 48.0 KHz
Bit depth : 16 bits
Compression mode : Lossy
Stream size : 162 MiB (2%)
Title : Dub
Language : Russian
Default : Yes
Forced : No
Audio #2
ID : 3
Format : AC-3
Format/Info : Audio Coding 3
Mode extension : CM (complete main)
Format settings, Endianness : Big
Codec ID : A_AC3
Duration : 1h 57mn
Bit rate mode : Constant
Bit rate : 640 Kbps
Channel(s) : 6 channels
Channel positions : Front: L C R, Side: L R, LFE
Sampling rate : 48.0 KHz
Bit depth : 16 bits
Compression mode : Lossy
Stream size : 539 MiB (6%)
Title : MVO
Language : Russian
Default : No
Forced : No
Audio #3
ID : 4
Format : AC-3
Format/Info : Audio Coding 3
Mode extension : CM (complete main)
Format settings, Endianness : Big
Codec ID : A_AC3
Duration : 1h 57mn
Bit rate mode : Constant
Bit rate : 640 Kbps
Channel(s) : 6 channels
Channel positions : Front: L C R, Side: L R, LFE
Sampling rate : 48.0 KHz
Bit depth : 16 bits
Compression mode : Lossy
Stream size : 539 MiB (6%)
Title : AVO Zhivov
Language : Russian
Default : No
Forced : No
Audio #4
ID : 5
Format : AC-3
Format/Info : Audio Coding 3
Mode extension : CM (complete main)
Format settings, Endianness : Big
Codec ID : A_AC3
Duration : 1h 57mn
Bit rate mode : Constant
Bit rate : 640 Kbps
Channel(s) : 6 channels
Channel positions : Front: L C R, Side: L R, LFE
Sampling rate : 48.0 KHz
Bit depth : 16 bits
Compression mode : Lossy
Stream size : 539 MiB (6%)
Title : AVO Serbin
Language : Russian
Default : No
Forced : No
Audio #5
ID : 6
Format : AC-3
Format/Info : Audio Coding 3
Mode extension : CM (complete main)
Format settings, Endianness : Big
Codec ID : A_AC3
Duration : 1h 57mn
Bit rate mode : Constant
Bit rate : 640 Kbps
Channel(s) : 6 channels
Channel positions : Front: L C R, Side: L R, LFE
Sampling rate : 48.0 KHz
Bit depth : 16 bits
Compression mode : Lossy
Stream size : 539 MiB (6%)
Title : AVO Vizgunov
Language : Russian
Default : No
Forced : No
Audio #6
ID : 7
Format : AC-3
Format/Info : Audio Coding 3
Mode extension : CM (complete main)
Format settings, Endianness : Big
Codec ID : A_AC3
Duration : 1h 57mn
Bit rate mode : Constant
Bit rate : 640 Kbps
Channel(s) : 6 channels
Channel positions : Front: L C R, Side: L R, LFE
Sampling rate : 48.0 KHz
Bit depth : 16 bits
Compression mode : Lossy
Stream size : 539 MiB (6%)
Title : Original
Language : English
Default : No
Forced : No
Text #1
ID : 8
Format : UTF-8
Codec ID : S_TEXT/UTF8
Codec ID/Info : UTF-8 Plain Text
Language : Russian
Default : No
Forced : No
Text #2
ID : 9
Format : UTF-8
Codec ID : S_TEXT/UTF8
Codec ID/Info : UTF-8 Plain Text
Language : English
Default : No
Forced : No
Menu
00:00:00.000 : en:00:00:00.000
00:08:14.619 : en:00:08:14.619
00:13:38.817 : en:00:13:38.817
00:20:53.626 : en:00:20:53.626
00:26:54.778 : en:00:26:54.778
00:34:11.465 : en:00:34:11.465
00:39:15.603 : en:00:39:15.603
00:47:19.335 : en:00:47:19.335
00:55:38.083 : en:00:55:38.083
01:02:25.742 : en:01:02:25.742
01:11:17.689 : en:01:11:17.689
01:17:08.122 : en:01:17:08.122
01:24:22.599 : en:01:24:22.599
01:35:58.252 : en:01:35:58.252
01:44:05.905 : en:01:44:05.905
01:46:56.076 : en:01:46:56.076
Скриншоты
source | E76 | [url=http://***/forum/viewtopic.php?t=1307588]CtrlHD[/url]





Скачать

Скачать торрент!

Как скачивать? · Что такое торрент? · Рейтинг и ограничения

Сайт не распространяет и не хранит электронные версии произведений, а лишь предоставляет доступ к создаваемому пользователями каталогу ссылок на торрент-файлы, которые содержат только списки хеш-сумм

[Профиль] [ЛС]
Показать сообщения:    
Ответить на тему

Текущее время: Сегодня 19:27

Часовой пояс: GMT + 4



Вы не можете начинать темы
Вы не можете отвечать на сообщения
Вы не можете редактировать свои сообщения
Вы не можете удалять свои сообщения
Вы не можете голосовать в опросах
Вы не можете прикреплять файлы к сообщениям
Вы не можете скачивать файлы