Человек с Земли / The Man from Earth (Ричард Шенкман / Richard Schenkman) [2007, США, фантастика, драма, BDRemux 1080p] MVO + AVO (Дольский) + Original eng + Sub rus, eng

Ответить на тему
 
Автор Сообщение

user ®

Стаж: 7 лет 7 месяцев

Сообщений: 20008

Пост Пост: #1 от 07-Сен-2014 03:55

[Цитировать]

Человек с Земли / The Man from Earth
Страна: США
Жанр: фантастика, драма
Год выпуска: 2007
Продолжительность: 01:27:08
Перевод#1: Профессиональный (многоголосый закадровый) | [url=http://***/forum/viewtopic.php?t=3339612]Кубик в Кубе[/url]
Перевод#2: Авторский (одноголосый закадровый), [url=http://***/forum/viewtopic.php?t=3222295]А. Дольский[/url]
Cубтитры: русские, английские
Оригинальная аудиодорожка: английский
Режиссер: Ричард Шенкман
Сценарий: Джером Биксби
В ролях: Дэвид Ли Смит, Тони Тодд, Джон Биллингсли, Эллен Кроуфорд, Анника Петерсон, Уильям Кэтт, Алексис Торпе, Ричард Риле
Описание: Импровизированная прощальная вечеринка профессора стала загадкой после того, как учёный рассказывает своим коллегам, что он бессмертный, который ходит по земле уже 14000 лет…

Исходник: The Man From Earth 2007 1080p BluRay VC-1 DD5.1-feenol@JoyHD, спасибо sander996
Тип релиза: BDRemux 1080p | sample
Контейнер: MKV
Видео: VC-1 Video / 26032 kbps / 1080p / 23.976 fps / 16:9 / Advanced Profile 3
Аудио #1: Russian AC3 2ch 48kHz 224Kbps | MVO Кубик в Кубе
Аудио #2: Russian AC3 2ch 48kHz 192Kbps | AVO Дольский
Аудио #3: English AC3 6ch 48kHz 640Kbps | Original
Формат субтитров: softsub (SRT)
Главы: есть

MediaInfo
General
Complete name : D:\...\The.Man.from.Earth.2007.1080p.Remux.VC-1.Rus.Eng.mkv
Format : Matroska
Format version : Version 2
File size : 16.5 GiB
Duration : 1h 27mn
Overall bit rate : 27.1 Mbps
Movie name : The.Man.from.Earth.2007.1080p.Remux.VC-1.Rus.Eng
Encoded date : UTC 2014-09-04 15:45:50
Writing application : mkvmerge v7.0.0 ('Where We Going') 64bit built on Jun 9 2014 15:16:27
Writing library : libebml v1.3.0 + libmatroska v1.4.1
Video
ID : 1
Format : VC-1
Format profile : Advanced@L3
Codec ID : V_MS/VFW/FOURCC / WVC1
Codec ID/Hint : Microsoft
Duration : 1h 27mn
Bit rate : 25.5 Mbps
Width : 1 920 pixels
Height : 1 080 pixels
Display aspect ratio : 16:9
Frame rate mode : Constant
Frame rate : 23.976 fps
Chroma subsampling : 4:2:0
Bit depth : 8 bits
Scan type : Progressive
Compression mode : Lossy
Bits/(Pixel*Frame) : 0.513
Stream size : 15.5 GiB (94%)
Title : The Man from Earth (2007)
Language : English
Default : Yes
Forced : No
Audio #1
ID : 2
Format : AC-3
Format/Info : Audio Coding 3
Mode extension : CM (complete main)
Format settings, Endianness : Big
Codec ID : A_AC3
Duration : 1h 27mn
Bit rate mode : Constant
Bit rate : 224 Kbps
Channel(s) : 2 channels
Channel positions : Front: L R
Sampling rate : 48.0 KHz
Bit depth : 16 bits
Compression mode : Lossy
Stream size : 140 MiB (1%)
Title : MVO KvK
Language : Russian
Default : Yes
Forced : No
Audio #2
ID : 3
Format : AC-3
Format/Info : Audio Coding 3
Mode extension : CM (complete main)
Format settings, Endianness : Big
Codec ID : A_AC3
Duration : 1h 27mn
Bit rate mode : Constant
Bit rate : 192 Kbps
Channel(s) : 2 channels
Channel positions : Front: L R
Sampling rate : 48.0 KHz
Bit depth : 16 bits
Compression mode : Lossy
Stream size : 120 MiB (1%)
Title : AVO Dolsky
Language : Russian
Default : No
Forced : No
Audio #3
ID : 4
Format : AC-3
Format/Info : Audio Coding 3
Mode extension : CM (complete main)
Format settings, Endianness : Big
Codec ID : A_AC3
Duration : 1h 27mn
Bit rate mode : Constant
Bit rate : 640 Kbps
Channel(s) : 6 channels
Channel positions : Front: L C R, Side: L R, LFE
Sampling rate : 48.0 KHz
Bit depth : 16 bits
Compression mode : Lossy
Stream size : 399 MiB (2%)
Title : Original DD 5.1
Language : English
Default : No
Forced : No
Text #1
ID : 5
Format : UTF-8
Codec ID : S_TEXT/UTF8
Codec ID/Info : UTF-8 Plain Text
Language : Russian
Default : No
Forced : No
Text #2
ID : 6
Format : UTF-8
Codec ID : S_TEXT/UTF8
Codec ID/Info : UTF-8 Plain Text
Language : English
Default : No
Forced : No
Menu
00:00:00.000 : en:00:00:00.000
00:10:02.602 : en:00:10:02.602
00:20:03.202 : en:00:20:03.202
00:30:03.802 : en:00:30:03.802
00:40:04.402 : en:00:40:04.402
00:50:05.002 : en:00:50:05.002
01:00:05.602 : en:01:00:05.602
01:10:06.202 : en:01:10:06.202
01:20:06.802 : en:01:20:06.802
Скриншоты
Скачать

Скачать торрент!

Как скачивать? · Что такое торрент? · Рейтинг и ограничения

Сайт не распространяет и не хранит электронные версии произведений, а лишь предоставляет доступ к создаваемому пользователями каталогу ссылок на торрент-файлы, которые содержат только списки хеш-сумм

[Профиль] [ЛС]
Показать сообщения:    
Ответить на тему

Текущее время: Сегодня 13:52

Часовой пояс: GMT + 4



Вы не можете начинать темы
Вы не можете отвечать на сообщения
Вы не можете редактировать свои сообщения
Вы не можете удалять свои сообщения
Вы не можете голосовать в опросах
Вы не можете прикреплять файлы к сообщениям
Вы не можете скачивать файлы