Совет мистраля / Лето в Провансе / Avis de mistral (Розлин Бош / Rose Bosch) [2014, Франция, драма, комедия, HDRip] VO (Lord32x)

Ответить на тему
 
Автор Сообщение

user ®

Стаж: 7 лет 7 месяцев

Сообщений: 20008

Пост Пост: #1 от 07-Сен-2014 03:55

[Цитировать]

Совет мистраля / Avis de mistral
Страна: Франция
Жанр: драма, комедия
Год выпуска: 2014
Продолжительность: 01:43:54
Перевод: Одноголосый закадровый Lord32x
Cубтитры: нет
Оригинальная аудиодорожка: нет
Режиссер: Розлин Бош / Rose Bosch
В ролях: Жан Рено, Анна Гальена, Хлоя Жуанне, Хьюго Дессиойкс, Ор Атика, Лукас Пеллишер, Том Либ, Жан-Мишель Нуари, Юг Офрей, Шарлотт де Тюркейм
Описание: Лиа, Адриен и их от рождения глухой младший брат Тео отправляются на лето в Прованс к своему дедушке Полю, которого они никогда не видели раньше из-за старой семейной ссоры. Это совсем не то, о чём они мечтали. Особенно после того как их отец объявил вчера о том, что уходит из дома.
Менее чем через двадцать четыре часа произойдёт столкновение разных поколений между подростками и дедушкой, которого они считали ненормальным. И ошибались. Бурное прошлое выйдет наружу, и все увидят Поля далёких 70-х. В течение одного лета обоим поколениям предстоит познать и понять друг друга.
Доп. информация:

Сэмпл: http://multi-up.com/997124
Релиз группы: GIPERWAREZ
Качество видео: HDRip
Формат видео: AVI
Видео: 720x304 (2.37:1), 24 fps, XviD build 50 ~1551 kbps avg, 0.29 bit/pixel
Аудио: 48 kHz, AC3 Dolby Digital, 3/2 (L,C,R,l,r) + LFE ch, ~448 kbps
MediaInfo
General
Complete name : C:\Users\Вика\Desktop\Avis.de.mistral.2014.HDRip.avi
Format : AVI
Format/Info : Audio Video Interleave
File size : 1.46 GiB
Duration : 1h 43mn
Overall bit rate : 2 009 Kbps
Writing application : VirtualDubMod 1.5.10.3 | www.virtualdub-fr.org || (build 2550/release)
Writing library : VirtualDubMod build 2550/release
Video
ID : 0
Format : MPEG-4 Visual
Format profile : Advanced Simple@L5
Format settings, BVOP : Yes
Format settings, QPel : No
Format settings, GMC : No warppoints
Format settings, Matrix : Default (MPEG)
Codec ID : XVID
Codec ID/Hint : XviD
Duration : 1h 43mn
Bit rate : 1 551 Kbps
Width : 720 pixels
Height : 304 pixels
Display aspect ratio : 2.35:1
Frame rate : 24.000 fps
Color space : YUV
Chroma subsampling : 4:2:0
Bit depth : 8 bits
Scan type : Progressive
Compression mode : Lossy
Bits/(Pixel*Frame) : 0.295
Stream size : 1.13 GiB (77%)
Writing library : XviD 1.2.1 (UTC 2008-12-04)
Audio
ID : 1
Format : AC-3
Format/Info : Audio Coding 3
Mode extension : CM (complete main)
Format settings, Endianness : Big
Codec ID : 2000
Duration : 1h 43mn
Bit rate mode : Constant
Bit rate : 448 Kbps
Channel count : 6 channels
Channel positions : Front: L C R, Side: L R, LFE
Sampling rate : 48.0 KHz
Bit depth : 16 bits
Compression mode : Lossy
Stream size : 333 MiB (22%)
Alignment : Split accross interleaves
Interleave, duration : 42 ms (1.00 video frame)
Interleave, preload duration : 500 ms
Скриншоты
Скачать

Скачать торрент!

Как скачивать? · Что такое торрент? · Рейтинг и ограничения

Сайт не распространяет и не хранит электронные версии произведений, а лишь предоставляет доступ к создаваемому пользователями каталогу ссылок на торрент-файлы, которые содержат только списки хеш-сумм

[Профиль] [ЛС]
Показать сообщения:    
Ответить на тему

Текущее время: Сегодня 16:09

Часовой пояс: GMT + 4



Вы не можете начинать темы
Вы не можете отвечать на сообщения
Вы не можете редактировать свои сообщения
Вы не можете удалять свои сообщения
Вы не можете голосовать в опросах
Вы не можете прикреплять файлы к сообщениям
Вы не можете скачивать файлы