Долгое падение / A Long Way Down (Паскаль Шомель / Pascal Chaumeil) [2014, Великобритания, Германия, драма, комедия, BDRip] [ITA-Transfer] Dub BD

Ответить на тему
 
Автор Сообщение

user ®

Стаж: 7 лет 7 месяцев

Сообщений: 20008

Пост Пост: #1 от 07-Сен-2014 03:55

[Цитировать]

Долгое падение / A Long Way Down
«Life is looking up»
-Страна: Великобритания, Германия / BBC Films, DCM Productions, Film4, Велес, Wildgaze Films
Жанр: драма, комедия
Год выпуска: 2014
Продолжительность: 01:36:27
Перевод: Профессиональный (дублированный) лицензия BD
Cубтитры: нет
Режиссёр: Паскаль Шомель / Pascal Chaumeil
В ролях: Пирс Броснан, Имоджен Путс, Аарон Пол, Тони Коллетт, Сэм Нил, Таппенс Мидлтон, Розамунд Пайк, Зара Уайт, Джо Коул, Эвелин Дуа.
Описание: Четверо незнакомцев встречаются в канун Нового Года на крыше лондонского небоскреба. Каждый из них поднялся с одной целью — прыгнуть. Очередь в лучший мир заставляет их заключить пакт — дожить до Дня всех влюбленных и оторваться по полной.-Рейтинг
imdb.com: 6.40 (9 220)
kinopoisk.ru: 6.643 (5 179)
MPAA: - лицам до 17 лет обязательно присутствие взрослого-Сэмпл: http://multi-up.com/997248-Качество видео: BDRip [A.Long.Way.Down.2014.BluRay.Remux.ExKinoRay]
Формат видео: AVI
Видео: XviD build 65, 720x304 (2.37:1), 24.000 fps, ~1712 kbps avg, 0.326 bit/pixel
Аудио: 48 kHz, AC3 Dolby Digital, 3/2 (L,C,R,l,r) + LFE ch, ~448 kbps avg (Dub)
-MediaInfo
Общее
Полное имя : D:\A.Long.Way.Down.2014.ITA-Transfer.Dub.BDRip.1,46Gb.XviD.AC3.avi
Формат : AVI
Формат/Информация : Audio Video Interleave
Размер файла : 1,46 Гбайт
Продолжительность : 1 ч. 36 м.
Общий поток : 2168 Кбит/сек
Название фильма : A Long Way Down 2014 [ITA-Transfer]
Режиссёр : Pascal Chaumeil
Дата записи : 06.09.2014
Программа кодирования : VirtualDubModRus 1.5.10.2 (build 2542/release)
Библиотека кодирования : VirtualDubMod build 2542/release
Правообладатель : ***
Примечание : MooN_WalkeR
Видео
Идентификатор : 0
Формат : MPEG-4 Visual
Профиль формата : Advanced Simple@L5
Параметр BVOP формата : 1
Параметр QPel формата : Нет
Параметр GMC формата : Без точки перехода
Параметр матрицы формата : Выборочная
Идентификатор кодека : XVID
Идентификатор кодека/Подсказка : XviD
Продолжительность : 1 ч. 36 м.
Битрейт : 1712 Кбит/сек
Ширина : 720 пикселей
Высота : 304 пикселя
Соотношение сторон : 2,35:1
Частота кадров : 24,000 кадра/сек
Цветовое пространство : YUV
Субдискретизация насыщенности : 4:2:0
Битовая глубина : 8 бит
Тип развёртки : Прогрессивная
Метод сжатия : С потерями
Бит/(Пиксели*Кадры) : 0.326
Размер потока : 1,15 Гбайт (79%)
Библиотека кодирования : XviD 65
Аудио
Идентификатор : 1
Формат : AC-3
Формат/Информация : Audio Coding 3
Расширение режима : CM (complete main)
Параметр Endianness формата : Big
Идентификатор кодека : 2000
Продолжительность : 1 ч. 36 м.
Вид битрейта : Постоянный
Битрейт : 448 Кбит/сек
Каналы : 6 каналов
Расположение каналов : Front: L C R, Side: L R, LFE
Частота : 48,0 КГц
Битовая глубина : 16 бит
Метод сжатия : С потерями
Размер потока : 308 Мбайт (21%)
Выравнивание : Разделение по промежуткам
Продолжительность промежутка : 42 мс. (1,00 видеокадр)
Время предзагрузки промежутка : 500 мс.
Заголовок : Dub
Скриншоты
Скачать

Скачать торрент!

Как скачивать? · Что такое торрент? · Рейтинг и ограничения

Сайт не распространяет и не хранит электронные версии произведений, а лишь предоставляет доступ к создаваемому пользователями каталогу ссылок на торрент-файлы, которые содержат только списки хеш-сумм

[Профиль] [ЛС]
Показать сообщения:    
Ответить на тему

Текущее время: Сегодня 10:45

Часовой пояс: GMT + 4



Вы не можете начинать темы
Вы не можете отвечать на сообщения
Вы не можете редактировать свои сообщения
Вы не можете удалять свои сообщения
Вы не можете голосовать в опросах
Вы не можете прикреплять файлы к сообщениям
Вы не можете скачивать файлы