Человек-мозг / The Brain Man (Томоюки Такимото / Tomoyuki Takimoto) [2013, Япония, детектив, триллер, HDRip] DVO [DeadSno & den904]

Ответить на тему
 
Автор Сообщение

user ®

Стаж: 13 лет

Сообщений: 15071

Пост Пост: #1 от 06-Сен-2014 06:10

[Цитировать]

Человек-мозг / The Brain Man- -Страна: Япония
Жанр: детектив, триллер
Год выпуска: 2013
Продолжительность: 02:05:10-Перевод: Любительский (двухголосый закадровый) [DeadSno & den904]-Cубтитры: нет
Оригинальная аудиодорожка: нет
Режиссер: Томоюки Такимото / Tomoyuki Takimoto
В ролях: Йосуке Егучи, Шота Сомея, Тома Икута, Рэндзи Исибаси, Исао Натсуяги, Фуми Никайдо, Кен Мицуйси, Ясуко Мацуюки, Рина Охта, Юкиёси Одзава
Описание: В маленьком городе в Японии происходит серия взрывов, казалось бы, не связанных между собой. Ичиро Сузуки, так же известного как Человек-мозг, подозревают в причастности к организации этих взрывов. Расследованием занимается Мидорикава. Человек-мозг — таинственный мужчина с выдающейся памятью, высоким интеллектом и идеальным телом, но, кажется, он не испытывает обычных человеческих эмоций. Нейрохирург Марико Вашия, имеющая свою психическую травму, верит, что люди добры по своей природе, и пытается спасать преступников. Она находит интересным Человека-Мозга и пытается докопаться до правды. А между тем, детектив Чая выслеживает Ичиро.
Релиз от -
Сэмпл: http://multi-up.com/997016
Качество видео: HDRip
Формат видео: AVI
Видео: MPEG-4 Visual at 700 Кбит/сек; 656 x 352 (1.864) at 23.976 fps
Аудио: MPEG Audio at 128 Кбит/сек; 2 канала, 48,0 КГц
Автор -
MediaInfo
Общее
Полное имя : D:\Фильмы\Азиатские\Человек-мозг\The Brain Man.2013.HDRip.XviD745MB. rip by [Assassin's Creed].avi
Формат : AVI
Формат/Информация : Audio Video Interleave
Размер файла : 750 Мбайт
Продолжительность : 2 ч. 5 м.
Общий поток : 837 Кбит/сек
Программа кодирования : VirtualDubMod 1.5.10.3 | www.virtualdub-fr.org || (build 2550/release)
Библиотека кодирования : VirtualDubMod build 2550/release
Видео
Идентификатор : 0
Формат : MPEG-4 Visual
Профиль формата : Advanced Simple@L5
Параметр BVOP формата : 1
Параметр QPel формата : Нет
Параметр GMC формата : Без точки перехода
Параметр матрицы формата : Default (MPEG)
Идентификатор кодека : XVID
Идентификатор кодека/Подсказка : XviD
Продолжительность : 2 ч. 5 м.
Битрейт : 700 Кбит/сек
Ширина : 656 пикселей
Высота : 352 пикселя
Соотношение сторон : 1,85:1
Частота кадров : 23,976 кадра/сек
Цветовое пространство : YUV
Субдискретизация насыщенности : 4:2:0
Битовая глубина : 8 бит
Тип развёртки : Прогрессивная
Метод сжатия : С потерями
Бит/(Пиксели*Кадры) : 0.126
Размер потока : 627 Мбайт (84%)
Библиотека кодирования : XviD 1.2.1 (UTC 2008-12-04)
Аудио
Идентификатор : 1
Формат : MPEG Audio
Версия формата : Version 1
Профиль формата : Layer 3
Идентификатор кодека : 55
Идентификатор кодека/Подсказка : MP3
Продолжительность : 2 ч. 5 м.
Вид битрейта : Постоянный
Битрейт : 128 Кбит/сек
Каналы : 2 канала
Частота : 48,0 КГц
Метод сжатия : С потерями
Размер потока : 115 Мбайт (15%)
Выравнивание : Соединение по промежуткам
Продолжительность промежутка : 42 мс. (1,00 видеокадр)
Время предзагрузки промежутка : 504 мс.
Библиотека кодирования : LAME3.99r
Настройки программы : -m s -V 4 -q 2 -lowpass 17 -b 128
Скриншот c названием фильма Скриншоты
Скачать

Скачать торрент! Человек-мозг / The Brain Man (Томоюки Такимото / Tomoyuki Takimoto) [2013, Япония, детектив, триллер, HDRip] DVO [DeadSno & den904]

Как скачивать? · Что такое торрент? · Рейтинг и ограничения

Сайт не распространяет и не хранит электронные версии произведений, а лишь предоставляет доступ к создаваемому пользователями каталогу ссылок на торрент-файлы, которые содержат только списки хеш-сумм

[Профиль] [ЛС]
Показать сообщения:    
Ответить на тему

Текущее время: Сегодня 18:02

Часовой пояс: GMT + 4



Вы не можете начинать темы
Вы не можете отвечать на сообщения
Вы не можете редактировать свои сообщения
Вы не можете удалять свои сообщения
Вы не можете голосовать в опросах
Вы не можете прикреплять файлы к сообщениям
Вы не можете скачивать файлы