Брестская крепость (Александр Котт) [2010, Россия, Беларусь, драма, военный, BDRip-AVC]

Ответить на тему
 
Автор Сообщение

user ®

Стаж: 7 лет 7 месяцев

Сообщений: 20008

Пост Пост: #1 от 05-Сен-2014 23:50

[Цитировать]

Брестская крепость
«Я умираю, но не сдаюсь!»
- Страна: Россия, Беларусь | Беларусьфильм, Централ Партнершип
Жанр: драма, военный
Год выпуска: 2010
Продолжительность: 02:18:19 час.
Субтитры: Английские (Full)
Навигация по главам: есть (12 глав, подписаны)
Режиссер: Александр Котт
В ролях: Алексей Копашов (Сашка Акимов), Андрей Мерзликин (лейтенант Кижеватов), Павел Деревянко (Ефим Фомин), Александр Коршунов (Петр Гаврилов), Евгений Цыганов (лейтенант Почерников), Максим Костромыкин (Колька), Анатолий Кот (диверсант), Яна Есипович (жена Кижеватова), Сергей Цепов (капитан Иван Зубачев), Анна Цуканова (Соня), Юрий Анпилогов (Ковтун), Вероника Никонова (Анна Кижеватова)
Описание: Фильм рассказывает о героической обороне Брестской крепости, которая приняла на себя первый удар немецко-фашистских захватчиков 22 июня 1941 года. С документальной точностью описываются события, происходившие в первые дни обороны. Фильм рассказывает о главных трёх очагах сопротивления, возглавляемых командиром полка Петром Гавриловым, комиссаром Ефимом Фоминым и начальником 9-й погранзаставы Андреем Кижеватовым.

Качество видео: BDRip-AVC => Сэмпл | исх. [url=http://***/forum/viewtopic.php?t=4101083]Брестская крепость / Fortress of War (Александр Котт) [2010, военная драма, Blu-ray 1080p] [UK][/url] - Спасибо MaLLIeHbKa
Формат видео: MKV
Релиз от RG MATROSKA & tRuAVC
Автор рипа zOJIOtOi
Видео: 1142x486p (2.35:1), 24,000 fps, H.264 ~4 430 kbps avg, 0.325 bit/pixel
Аудио: 48 kHz, AC3, 3/2 (L,C,R,l,r) + LFE ch, ~448.00 kbps avg | Оригинал (русский)
MediaInfo | log x264
log x264
raw [info]: 1142x486p 1:1 @ 24/1 fps (cfr)
x264 [info]: using SAR=1/1
x264 [info]: using cpu capabilities: MMX2 SSE2Fast SSSE3 SSE4.2 AVX
x264 [info]: profile High, level 4.1
x264 [info]: cabac=1 ref=13 deblock=1:-3:-3 analyse=0x3:0x133 me=umh subme=11 psy=1 fade_compensate=0.00 psy_rd=0.85:0.00 mixed_ref=1 me_range=32 chroma_me=1 trellis=2 8x8dct=1 cqm=0 deadzone=21,11 fast_pskip=0 chroma_qp_offset=-2 threads=6 lookahead_threads=1 sliced_threads=0 nr=0 decimate=1 interlaced=0 bluray_compat=0 constrained_intra=0 fgo=0 bframes=16 b_pyramid=2 b_adapt=2 b_bias=0 direct=1 weightb=1 open_gop=0 weightp=2 keyint=250 keyint_min=24 scenecut=40 intra_refresh=0 rc_lookahead=40 rc=crf mbtree=0 crf=21.2500 qcomp=0.70 qpmin=0 qpmax=69 qpstep=4 vbv_maxrate=50000 vbv_bufsize=62500 crf_max=0.0 nal_hrd=none filler=0 ip_ratio=1.30 pb_ratio=1.20 aq=3:1.15
x264 [info]: frame I:1114 Avg QP:19.18 size: 70776
x264 [info]: frame P:42600 Avg QP:20.85 size: 35900
x264 [info]: frame B:155462 Avg QP:22.26 size: 19213
x264 [info]: consecutive B-frames: 1.6% 2.4% 9.4% 19.8% 17.0% 38.2% 4.3% 1.3% 1.3% 0.7% 0.4% 0.2% 0.2% 1.4% 1.1% 0.1% 0.5%
x264 [info]: mb I I16..4: 7.0% 80.9% 12.1%
x264 [info]: mb P I16..4: 1.0% 26.6% 2.2% P16..4: 26.5% 28.3% 9.3% 1.1% 0.1% skip: 4.8%
x264 [info]: mb B I16..4: 0.2% 7.1% 0.3% B16..8: 34.4% 20.2% 3.8% direct: 7.7% skip:26.3% L0:42.7% L1:45.8% BI:11.6%
x264 [info]: 8x8 transform intra:90.8% inter:64.9%
x264 [info]: coded y,uvDC,uvAC intra: 92.8% 61.0% 15.2% inter: 39.3% 18.1% 0.2%
x264 [info]: i16 v,h,dc,p: 41% 11% 7% 42%
x264 [info]: i8 v,h,dc,ddl,ddr,vr,hd,vl,hu: 8% 7% 12% 10% 13% 12% 13% 11% 13%
x264 [info]: i4 v,h,dc,ddl,ddr,vr,hd,vl,hu: 15% 8% 6% 8% 14% 13% 13% 10% 12%
x264 [info]: i8c dc,h,v,p: 24% 37% 21% 18%
x264 [info]: Weighted P-Frames: Y:16.1% UV:9.2%
x264 [info]: ref P L0: 44.3% 14.2% 16.7% 6.3% 4.6% 3.3% 2.8% 1.6% 1.5% 1.2% 1.1% 1.0% 1.0% 0.3% 0.0%
x264 [info]: ref B L0: 76.0% 10.6% 4.9% 2.4% 1.7% 1.3% 1.0% 0.6% 0.5% 0.5% 0.3% 0.1%
x264 [info]: ref B L1: 93.3% 6.7%
x264 [info]: kb/s:4429.55
encoded 199176 frames, 3.34 fps, 4429.55 kb/s
Общее
Уникальный идентификатор : 221473219874706553853216901274938925264 (0xA69E30CB66B3267EAB23C08EEDE460D0)
Полное имя : D:\my rips\Brestskaya.Krepost.2010.BDRip-AVC.by.zOJIOtOi.mkv
Формат : Matroska
Версия формата : Version 4 / Version 2
Размер файла : 4,71 Гбайт
Продолжительность : 2 ч. 18 м.
Общий поток : 4880 Кбит/сек
Дата кодирования : UTC 2014-08-29 10:06:40
Программа кодирования : mkvmerge v7.0.0 ('Where We Going') 64bit built on Jun 9 2014 15:16:27
Библиотека кодирования : libebml v1.3.0 + libmatroska v1.4.1
DURATION : 02:12:51.083000000
NUMBER_OF_FRAMES : 597
NUMBER_OF_BYTES : 22811
_STATISTICS_WRITING_APP : mkvmerge v7.0.0 ('Where We Going') 64bit built on Jun 9 2014 15:16:27
_STATISTICS_WRITING_DATE_UTC : 2014-08-29 10:06:40
_STATISTICS_TAGS : BPS DURATION NUMBER_OF_FRAMES NUMBER_OF_BYTES
Attachment : Yes
Видео
Идентификатор : 1
Формат : AVC
Формат/Информация : Advanced Video Codec
Профиль формата : High@L4.1
Параметр CABAC формата : Да
Параметр ReFrames формата : 13 кадров
Идентификатор кодека : V_MPEG4/ISO/AVC
Продолжительность : 2 ч. 18 м.
Битрейт : 4334 Кбит/сек
Ширина : 1142 пикселя
Высота : 486 пикселей
Соотношение сторон : 2,35:1
Режим частоты кадров : Постоянный
Частота кадров : 24,000 кадра/сек
Цветовое пространство : YUV
Субдискретизация насыщенности : 4:2:0
Битовая глубина : 8 бит
Тип развёртки : Прогрессивная
Бит/(Пиксели*Кадры) : 0.325
Размер потока : 4,19 Гбайт (89%)
Заголовок : Brestskaya.Krepost.2010.BDRip-AVC.by.zOJIOtOi
Библиотека кодирования : x264 core 142 r2453kMod ea0ca51
Настройки программы : cabac=1 / ref=13 / deblock=1:-3:-3 / analyse=0x3:0x133 / me=umh / subme=11 / psy=1 / fade_compensate=0.00 / psy_rd=0.85:0.00 / mixed_ref=1 / me_range=32 / chroma_me=1 / trellis=2 / 8x8dct=1 / cqm=0 / deadzone=21,11 / fast_pskip=0 / chroma_qp_offset=-2 / threads=6 / lookahead_threads=1 / sliced_threads=0 / nr=0 / decimate=1 / interlaced=0 / bluray_compat=0 / constrained_intra=0 / fgo=0 / bframes=16 / b_pyramid=2 / b_adapt=2 / b_bias=0 / direct=1 / weightb=1 / open_gop=0 / weightp=2 / keyint=250 / keyint_min=24 / scenecut=40 / intra_refresh=0 / rc_lookahead=40 / rc=crf / mbtree=0 / crf=21.2500 / qcomp=0.70 / qpmin=0 / qpmax=69 / qpstep=4 / vbv_maxrate=50000 / vbv_bufsize=62500 / crf_max=0.0 / nal_hrd=none / filler=0 / ip_ratio=1.30 / pb_ratio=1.20 / aq=3:1.15
Язык : Russian
Default : Да
Forced : Нет
DURATION : 02:18:19.000000000
NUMBER_OF_FRAMES : 199176
NUMBER_OF_BYTES : 4595109433
_STATISTICS_WRITING_APP : mkvmerge v7.0.0 ('Where We Going') 64bit built on Jun 9 2014 15:16:27
_STATISTICS_WRITING_DATE_UTC : 2014-08-29 10:06:40
_STATISTICS_TAGS : BPS DURATION NUMBER_OF_FRAMES NUMBER_OF_BYTES
Основные цвета : BT.709
Характеристики трансфера : BT.709
Коэффициенты матрицы : BT.709
Аудио
Идентификатор : 2
Формат : AC-3
Формат/Информация : Audio Coding 3
Расширение режима : CM (complete main)
Параметр Endianness формата : Big
Идентификатор кодека : A_AC3
Продолжительность : 2 ч. 18 м.
Вид битрейта : Постоянный
Битрейт : 448 Кбит/сек
Каналы : 6 каналов
Расположение каналов : Front: L C R, Side: L R, LFE
Частота : 48,0 КГц
Битовая глубина : 16 бит
Метод сжатия : С потерями
Размер потока : 443 Мбайт (9%)
Заголовок : DD 5.1 @ 448 kbps
Язык : Russian
Default : Да
Forced : Нет
Текст
Идентификатор : 3
Формат : UTF-8
Идентификатор кодека : S_TEXT/UTF8
Идентификатор кодека/Информация : UTF-8 Plain Text
Заголовок : Full
Язык : English
Default : Нет
Forced : Нет
Меню
00:00:00.000 : ru:1. Городской Парк, 1941
00:11:06.000 : ru:2. Слухи о войне
00:21:40.000 : ru:3. 03:58 22 июня 1941
00:31:29.000 : ru:4. Крепость. Волынское укрепление
00:44:08.000 : ru:5. Спасение людей из госпиталя
01:00:52.542 : ru:6. Первое немецкое отступление
01:15:30.000 : ru:7. 24 июня
01:25:48.000 : ru:8. Доставка приказа
01:33:54.000 : ru:9. Массовый побег
01:44:01.000 : ru:10. Аня и Катя
02:04:28.333 : ru:11. Выживание
02:13:46.000 : ru:12. Заключительные Титры
Source vs rip by zOJIOtOi vs rip by Geralt iz Rivii vs rip by Toshik27162
---------------------------------------------------------------------------source---------------------------------------------------------------------------

----------------------------------------------------------------------rip by zOJIOtOi----------------------------------------------------------------------
----------------------------------------------------------------------------source---------------------------------------------------------------------------

----------------------------------------------------------------------rip by zOJIOtOi----------------------------------------------------------------------

----------------------------------------------------------------------[url=http://***/forum/viewtopic.php?t=3344386]rip by Geralt iz Rivii 3.01 Gb[/url]----------------------------------------------------------------------

----------------------------------------------------------------------[url=http://***/forum/viewtopic.php?t=3481743]rip by Toshik 4.36 Gb[/url]----------------------------------------------------------------------
Скриншоты
Скачать

Скачать торрент!

Как скачивать? · Что такое торрент? · Рейтинг и ограничения

Сайт не распространяет и не хранит электронные версии произведений, а лишь предоставляет доступ к создаваемому пользователями каталогу ссылок на торрент-файлы, которые содержат только списки хеш-сумм

[Профиль] [ЛС]
Показать сообщения:    
Ответить на тему

Текущее время: Сегодня 12:47

Часовой пояс: GMT + 4



Вы не можете начинать темы
Вы не можете отвечать на сообщения
Вы не можете редактировать свои сообщения
Вы не можете удалять свои сообщения
Вы не можете голосовать в опросах
Вы не можете прикреплять файлы к сообщениям
Вы не можете скачивать файлы