Аннычка / Анничка (Борис Ивченко) [1968, Военная драма, DVDRip]

Ответить на тему
 
Автор Сообщение

user ®

Стаж: 7 лет 7 месяцев

Сообщений: 20008

Пост Пост: #1 от 05-Сен-2014 23:50

[Цитировать]

Аннычка / Анничка /
Жанр: Военная драма
Год выпуска: 1968
Продолжительность: 01:23:36
Режиссёр: Борис Ивченко

В ролях: Любовь Черновал-Румянцева, Григорий Григориу, Константин Степанков, Иван Миколайчук, Анатолий Барчук, Иван Гаврилюк, Ольга Ножкина, Борислав (в титрах Борис) Брондуков, Василий Симчич, Нинель Жуковская (в титрах Н. Козловская), Ю. Попелов, Г. Гараджук, Виталий Расстальной, Фёдор Стригун, Борис Ивченко, Виктор Мирошниченко
Описание: 1943 год. Война поделила гуцулов на тех, кто рад приходу фашистов, и тех, кто видит в них убийц соотечественников и покорителей Карпат. Случайно оказавшись в местах недавних боёв, молодая гуцулка Аннычка обнаруживает в лесу раненого. Она его спрятала, выходила и полюбила. Теперь Аннычке ненавистен её жених Роман, ставший полицаем и повинный в смерти земляков. Она спасает из плена Андрея и решает бежать с любимым к партизанам, чем доводит до исступления отца, и погибает от его руки на пути к свободе.
Доп. информация: Рип выполнен с DVD9, pmv,
Реставрация: производитель: Національний Центр Олександра Довженка (Киев)
Год выпуска диска: 2010
Сэмпл: http://multi-up.com/997024
Качество видео: DVDRip
Формат видео: AVI
Видео: 720x544 (1.32:1), 25 fps, XviD build 73 ~2178 kbps avg, 0.22 bit/pixel
Аудио: 48 kHz, MPEG Layer 3, 1 ch, ~96.00 kbps avg - Русский
48 kHz, MPEG Layer 3, 1 ch, ~96.00 kbps avg - Украинский
MediaInfo
Format : AVI
Format/Info : Audio Video Interleave
File size : 1.39 GiB
Duration : 1h 23mn
Overall bit rate : 2 386 Kbps
Writing application : VirtualDubMod 1.5.10.3 | www.virtualdub-fr.org || (build 2550/release)
Writing library : VirtualDubMod build 2550/release
Video
ID : 0
Format : MPEG-4 Visual
Format profile : Advanced Simple@L5
Format settings, BVOP : 2
Format settings, QPel : No
Format settings, GMC : No warppoints
Format settings, Matrix : Default (H.263)
Codec ID : XVID
Codec ID/Hint : XviD
Duration : 1h 23mn
Bit rate : 2 180 Kbps
Width : 720 pixels
Height : 544 pixels
Display aspect ratio : 4:3
Frame rate : 25.000 fps
Color space : YUV
Chroma subsampling : 4:2:0
Bit depth : 8 bits
Scan type : Progressive
Compression mode : Lossy
Bits/(Pixel*Frame) : 0.223
Stream size : 1.27 GiB (91%)
Writing library : XviD 73
Audio #1
ID : 1
Format : MPEG Audio
Format version : Version 1
Format profile : Layer 3
Codec ID : 55
Codec ID/Hint : MP3
Duration : 1h 23mn
Bit rate mode : Constant
Bit rate : 96.0 Kbps
Channel(s) : 1 channel
Sampling rate : 48.0 KHz
Compression mode : Lossy
Stream size : 57.4 MiB (4%)
Alignment : Aligned on interleaves
Interleave, duration : 40 ms (1.00 video frame)
Interleave, preload duration : 504 ms
Audio #2
ID : 2
Format : MPEG Audio
Format version : Version 1
Format profile : Layer 3
Codec ID : 55
Codec ID/Hint : MP3
Duration : 1h 23mn
Bit rate mode : Constant
Bit rate : 96.0 Kbps
Channel(s) : 1 channel
Sampling rate : 48.0 KHz
Compression mode : Lossy
Stream size : 57.4 MiB (4%)
Alignment : Aligned on interleaves
Interleave, duration : 40 ms (1.00 video frame)
Interleave, preload duration : 504 ms
Скриншот c названием фильма Скриншоты
Скачать

Скачать торрент!

Как скачивать? · Что такое торрент? · Рейтинг и ограничения

Сайт не распространяет и не хранит электронные версии произведений, а лишь предоставляет доступ к создаваемому пользователями каталогу ссылок на торрент-файлы, которые содержат только списки хеш-сумм

[Профиль] [ЛС]
Показать сообщения:    
Ответить на тему

Текущее время: Сегодня 00:11

Часовой пояс: GMT + 4



Вы не можете начинать темы
Вы не можете отвечать на сообщения
Вы не можете редактировать свои сообщения
Вы не можете удалять свои сообщения
Вы не можете голосовать в опросах
Вы не можете прикреплять файлы к сообщениям
Вы не можете скачивать файлы