Рыба на суше / Fish on Land (Юсуке Исэя / Yusuke Iseya) [2012, Япония, Драма, DVDRip] VO D.I.M.

Ответить на тему
 
Автор Сообщение

user ®

Стаж: 13 лет

Сообщений: 15071

Пост Пост: #1 от 05-Сен-2014 20:40

[Цитировать]

Рыба на суше / Fish on Land
Страна: Япония
Жанр: Драма
Год выпуска: 2012
Продолжительность: 1:47:51
Перевод: Одноголосый закадровый D.I.M.
Cубтитры: нет
Режиссер: Юсуке Исэя / Yusuke Iseya
В ролях:
Хидетоси Нисиджима / Hidetoshi Nishijima
Нае / Nae
Хирофуми Араи / Hirofumi Arai
Киёхико Сибукава / Kiyohiko Shibukawa
Мираи Морияма / Mirai Moriyama
Описание: Молодой парень летом совершает поездку на велосипеде
в последний год своего обучения. И судьба сводит его
с управляющим забегаловки под названием "Дом 475".
Он ненадолго устраивается туда подрабатывать.
Но оказывается, что люди не совсем то, что они сначала из себя представляют...
Это сто второй фильм с моим переводом и озвучкой,
выложенный здесь.
А здесь все мои раздачи [url=http://***/forum/tracker.php?rid=1940569#results]http://***/forum/tracker.php?rid=1940569#results[/url].
Любители душевного кино могут найти для себя что-то интересное.
Сэмпл: http://multi-up.com/996959
Качество видео: DVDRip
Формат видео: AVI
Видео: 720*400 (16:9), 23,976 fps, MPEG-4 Visual (XviD) ~ 772 kbps avg, 0.112 bit/pixel
Аудио: MPEG Audio Layer 3, 48000Hz, stereo, 128kbps
MediaInfo
Общее
Полное имя : E:\TORENT\РАЗДАЧИ (РИПЫ)\A Fish on Land.avi
Формат : AVI
Формат/Информация : Audio Video Interleave
Размер файла : 702 Мбайт
Продолжительность : 1 ч. 47 м.
Общий поток : 909 Кбит/сек
Программа кодирования : VirtualDubModRus 1.5.10.2 (build 2542/release)
Библиотека кодирования : VirtualDubMod build 2542/release
Видео
Идентификатор : 0
Формат : MPEG-4 Visual
Профиль формата : Advanced Simple@L5
Параметр BVOP формата : 1
Параметр QPel формата : Нет
Параметр GMC формата : Без точки перехода
Параметр матрицы формата : Выборочная
Идентификатор кодека : XVID
Идентификатор кодека/Подсказка : XviD
Продолжительность : 1 ч. 47 м.
Битрейт : 772 Кбит/сек
Ширина : 720 пикс.
Высота : 400 пикс.
Соотношение сторон : 16:9
Частота кадров : 23,976 кадр/сек
Цветовое пространство : YUV
Подвыборка цветности : 4:2:0
Битовая глубина : 8 бит
Тип развёртки : Прогрессивная
Метод сжатия : С потерями
Бит/(Пиксели*Кадры) : 0.112
Размер потока : 596 Мбайт (85%)
Библиотека кодирования : XviD 63
Аудио
Идентификатор : 1
Формат : MPEG Audio
Версия формата : Version 1
Профиль формата : Layer 3
Режим : Joint stereo
Идентификатор кодека : 55
Идентификатор кодека/Подсказка : MP3
Продолжительность : 1 ч. 47 м.
Вид битрейта : Постоянный
Битрейт : 128 Кбит/сек
Канал(ы) : 2 канала(ов)
Частота : 48,0 КГц
Метод сжатия : С потерями
Размер потока : 98,7 Мбайт (14%)
Выравнивание : Соединение по промежуткам
Продолжительность промежутка : 42 мс. (1,00 видеокадр)
Время предзагрузки промежутка : 504 ms
Библиотека кодирования : LAME3.98.2
Скриншот c названием фильма Скриншоты
Скачать

Скачать торрент! Рыба на суше / Fish on Land (Юсуке Исэя / Yusuke Iseya) [2012, Япония, Драма, DVDRip] VO D.I.M.

Как скачивать? · Что такое торрент? · Рейтинг и ограничения

Сайт не распространяет и не хранит электронные версии произведений, а лишь предоставляет доступ к создаваемому пользователями каталогу ссылок на торрент-файлы, которые содержат только списки хеш-сумм

[Профиль] [ЛС]
Показать сообщения:    
Ответить на тему

Текущее время: Сегодня 17:03

Часовой пояс: GMT + 4



Вы не можете начинать темы
Вы не можете отвечать на сообщения
Вы не можете редактировать свои сообщения
Вы не можете удалять свои сообщения
Вы не можете голосовать в опросах
Вы не можете прикреплять файлы к сообщениям
Вы не можете скачивать файлы