Улицы в огне / Огненные улицы / Streets of Fire (Уолтер Хилл / Walter Hill) [1984, США, боевик, драма, криминал, музыка, BDRip 720p] DVO (Universal Pictures) + AVO (Гаврилов) + AVO (Михалев) + VO (kyberpunk) + Sub Rus, Eng + Ukr + Original Eng

Ответить на тему
 
Автор Сообщение

user ®

Стаж: 7 лет 7 месяцев

Сообщений: 20008

Пост Пост: #1 от 05-Сен-2014 20:40

[Цитировать]

Улицы в огне / Огненные улицы / Streets of Fire
Страна: США
Жанр: боевик, триллер, драма, криминал, музыка, сказка в стиле рок-н-ролл
Год выпуска: 1984
Продолжительность: 01:33:50
-
Перевод 1: Профессиональный (двухголосый закадровый) Universal Pictures
Перевод 2: Авторский (одноголосый закадровый) Андрей Гаврилов
Перевод 3: Авторский (одноголосый закадровый) Алексей Михалев
Перевод 4: Одноголосый закадровый Михаил Яроцкий (kyberpunk)
Cубтитры: русские (Doctor_Joker на тексты песен, Forced) и английские (Full, SDH)
Оригинальная аудиодорожка: английский
-
Режиссер: Уолтер Хилл / Walter Hill
В ролях: Майкл Паре, Дайан Лэйн, Рик Морэнис, Эми Мэдиган, Уиллем Дефо, Дебора Ван Валкенберг, Ричард Лоусон, Рик Россович, Билл Пэкстон, Ли Винг
-
Описание: Банда жестоких байкеров похищает прямо с концерта популярную рок-диву. Бывший кавалер певицы по имени Том Коди соглашается вернуть девушку и объявляет войну злодеям-мотоциклистам.
-

-
Сэмпл: https://www.sendspace.com/file/xk701l
-
Тип релиза: BDRip 720p
Контейнер: MKV
Видео: 1280x692p (1.85:1), 23.976 fps, 5 647 Kbps
Аудио 1: русский / AC3 / 2.0 / 48 kHz / 192 kbps / 16 bit || DVO
Аудио 2: русский / AC3 / 2.0 / 48 kHz / 192 kbps / 16 bit || AVO
Аудио 3: русский / AC3 / 2.0 / 48 kHz / 192 kbps / 16 bit || AVO
Аудио 4: русский / AC3 / 5.1 / 48 kHz / 384 kbps / 16 bit || VO
Аудио 5: украинский / AC3 / 2.0 / 48 kHz / 192 kbps / 16 bit || UKR
Аудио 6: английский / AC3 / 5.1 / 48 kHz / 448 kbps / 16 bit || ENG
Формат субтитров: softsub (SRT)
Главы: есть
Сравнение с HD-DVDRip Доп. информация
Рип скачан с другого трекера, субтитры подогнаны (все субтитры отставали на 1 сек.) добавлены зв. дорожки отсюда (4) [url=http://***/forum/viewtopic.php?t=4525462]http://***/forum/viewtopic.php?t=4525462[/url] и (5) [url=http://***/forum/viewtopic.php?t=4538552]http://***/forum/viewtopic.php?t=4538552[/url] (в обеих дорожках выставлена необходимая задержка) Всем авторам спасибо.
MediaInfo
General
Unique ID : 201243075753697632088520657431176640739 (0x976601AE894EF576AADDB53C795378E3)
Complete name : C:\Users\ALEX\Downloads\Фильмы\HD\Streets of Fire.1984.BDRip.720p.4xRus.Ukr.Eng.Subs.Chpt.mkv
Format : Matroska
Format version : Version 4 / Version 2
File size : 4.75 GiB
Duration : 1h 33mn
Overall bit rate : 7 245 Kbps
Encoded date : UTC 2014-09-03 18:00:35
Writing application : mkvmerge v6.6.0 ('The Edge Of The In Between') built on Dec 1 2013 17:55:00
Writing library : libebml v1.3.0 + libmatroska v1.4.1
Video
ID : 1
Format : AVC
Format/Info : Advanced Video Codec
Format profile : High@L4.1
Format settings, CABAC : Yes
Format settings, ReFrames : 9 frames
Codec ID : V_MPEG4/ISO/AVC
Duration : 1h 33mn
Bit rate : 5 647 Kbps
Width : 1 280 pixels
Height : 692 pixels
Display aspect ratio : 1.85:1
Frame rate mode : Constant
Frame rate : 23.976 fps
Color space : YUV
Chroma subsampling : 4:2:0
Bit depth : 8 bits
Scan type : Progressive
Bits/(Pixel*Frame) : 0.266
Stream size : 3.61 GiB (76%)
Title : By SC Kosmos
Writing library : x264 core 142 r2389 956c8d8
Encoding settings : cabac=1 / ref=9 / deblock=1:-2:-3 / analyse=0x3:0x113 / me=umh / subme=11 / psy=1 / psy_rd=1.00:0.00 / mixed_ref=1 / me_range=32 / chroma_me=1 / trellis=2 / 8x8dct=1 / cqm=0 / deadzone=21,11 / fast_pskip=0 / chroma_qp_offset=-2 / threads=12 / lookahead_threads=1 / sliced_threads=0 / nr=0 / decimate=1 / interlaced=0 / bluray_compat=0 / constrained_intra=0 / bframes=12 / b_pyramid=2 / b_adapt=1 / b_bias=0 / direct=3 / weightb=1 / open_gop=0 / weightp=2 / keyint=240 / keyint_min=23 / scenecut=40 / intra_refresh=0 / rc_lookahead=40 / rc=2pass / mbtree=0 / bitrate=5647 / ratetol=1.0 / qcomp=0.60 / qpmin=0 / qpmax=69 / qpstep=4 / cplxblur=20.0 / qblur=0.5 / vbv_maxrate=50000 / vbv_bufsize=50000 / nal_hrd=none / filler=0 / ip_ratio=1.40 / pb_ratio=1.30 / aq=1:1.00
Language : English
Default : Yes
Forced : No
Audio #1
ID : 2
Format : AC-3
Format/Info : Audio Coding 3
Mode extension : CM (complete main)
Format settings, Endianness : Big
Codec ID : A_AC3
Duration : 1h 33mn
Bit rate mode : Constant
Bit rate : 192 Kbps
Channel(s) : 2 channels
Channel positions : Front: L R
Sampling rate : 48.0 KHz
Bit depth : 16 bits
Compression mode : Lossy
Stream size : 129 MiB (3%)
Title : DVO - Universal Pictures
Language : Russian
Default : Yes
Forced : No
Audio #2
ID : 3
Format : AC-3
Format/Info : Audio Coding 3
Mode extension : CM (complete main)
Format settings, Endianness : Big
Codec ID : A_AC3
Duration : 1h 33mn
Bit rate mode : Constant
Bit rate : 192 Kbps
Channel(s) : 2 channels
Channel positions : Front: L R
Sampling rate : 48.0 KHz
Bit depth : 16 bits
Compression mode : Lossy
Stream size : 129 MiB (3%)
Title : AVO - Гаврилов
Language : Russian
Default : No
Forced : No
Audio #3
ID : 4
Format : AC-3
Format/Info : Audio Coding 3
Mode extension : CM (complete main)
Format settings, Endianness : Big
Codec ID : A_AC3
Duration : 1h 33mn
Bit rate mode : Constant
Bit rate : 192 Kbps
Channel(s) : 2 channels
Channel positions : Front: L R
Sampling rate : 48.0 KHz
Bit depth : 16 bits
Compression mode : Lossy
Stream size : 129 MiB (3%)
Title : AVO - Михалев
Language : Russian
Default : No
Forced : No
Audio #4
ID : 5
Format : AC-3
Format/Info : Audio Coding 3
Mode extension : CM (complete main)
Format settings, Endianness : Big
Codec ID : A_AC3
Duration : 1h 33mn
Bit rate mode : Constant
Bit rate : 384 Kbps
Channel(s) : 6 channels
Channel positions : Front: L C R, Side: L R, LFE
Sampling rate : 48.0 KHz
Bit depth : 16 bits
Compression mode : Lossy
Stream size : 258 MiB (5%)
Title : VO - Михаил Яроцкий (kyberpunk)
Language : Russian
Default : No
Forced : No
Audio #5
ID : 6
Format : AC-3
Format/Info : Audio Coding 3
Mode extension : CM (complete main)
Format settings, Endianness : Big
Codec ID : A_AC3
Duration : 1h 33mn
Bit rate mode : Constant
Bit rate : 192 Kbps
Channel(s) : 2 channels
Channel positions : Front: L R
Sampling rate : 48.0 KHz
Bit depth : 16 bits
Compression mode : Lossy
Stream size : 129 MiB (3%)
Title : т/к 1+1
Language : Ukrainian
Default : No
Forced : No
Audio #6
ID : 7
Format : AC-3
Format/Info : Audio Coding 3
Mode extension : CM (complete main)
Format settings, Endianness : Big
Codec ID : A_AC3
Duration : 1h 33mn
Bit rate mode : Constant
Bit rate : 448 Kbps
Channel(s) : 6 channels
Channel positions : Front: L C R, Side: L R, LFE
Sampling rate : 48.0 KHz
Bit depth : 16 bits
Compression mode : Lossy
Stream size : 301 MiB (6%)
Title : Original
Language : English
Default : No
Forced : No
Text #1
ID : 8
Format : UTF-8
Codec ID : S_TEXT/UTF8
Codec ID/Info : UTF-8 Plain Text
Title : Forced на тексты песен by Doctor Joker
Language : Russian
Default : Yes
Forced : No
Text #2
ID : 9
Format : UTF-8
Codec ID : S_TEXT/UTF8
Codec ID/Info : UTF-8 Plain Text
Title : Full
Language : English
Default : No
Forced : No
Text #3
ID : 10
Format : UTF-8
Codec ID : S_TEXT/UTF8
Codec ID/Info : UTF-8 Plain Text
Title : SDH
Language : English
Default : No
Forced : No
Menu
00:00:00.000 : en:00:00:00.000
00:06:20.630 : en:00:06:20.630
00:11:26.978 : en:00:11:26.978
00:16:45.421 : en:00:16:45.421
00:26:06.482 : en:00:26:06.482
00:31:05.447 : en:00:31:05.447
00:40:07.363 : en:00:40:07.363
00:55:04.968 : en:00:55:04.968
01:13:14.974 : en:01:13:14.974
01:20:08.595 : en:01:20:08.595
01:24:20.597 : en:01:24:20.597
01:28:35.477 : en:01:28:35.477
Скриншоты
Скачать

Скачать торрент!

Как скачивать? · Что такое торрент? · Рейтинг и ограничения

Сайт не распространяет и не хранит электронные версии произведений, а лишь предоставляет доступ к создаваемому пользователями каталогу ссылок на торрент-файлы, которые содержат только списки хеш-сумм

[Профиль] [ЛС]
Показать сообщения:    
Ответить на тему

Текущее время: Сегодня 12:14

Часовой пояс: GMT + 4



Вы не можете начинать темы
Вы не можете отвечать на сообщения
Вы не можете редактировать свои сообщения
Вы не можете удалять свои сообщения
Вы не можете голосовать в опросах
Вы не можете прикреплять файлы к сообщениям
Вы не можете скачивать файлы