Рука-убийца / Idle Hands (Родмэн Флендер / Rodman Flender) [1999, США, ужасы, комедия, BDRip 1080p] Dub + DVO (ВидеоСервис) + Sub Rus, Eng + Original Eng

Ответить на тему
 
Автор Сообщение

user ®

Стаж: 7 лет 7 месяцев

Сообщений: 20008

Пост Пост: #1 от 05-Сен-2014 20:40

[Цитировать]

Рука-убийца / Idle Hands
Страна: США
Жанр: ужасы, комедия
Год выпуска: 1999
Продолжительность: 01:32:04
-
Перевод 1: Профессиональный (дублированный)
Перевод 2: Профессиональный (двухголосый закадровый) ВидеоСервис
Cубтитры: русские и английские (Full)
Оригинальная аудиодорожка: английский
-
Режиссер: Родмэн Флендер / Rodman Flender
В ролях: Девон Сава, Сет Грин, Элден Хенсон, Джессика Альба, Вивика А. Фокс, Кристофер Харт, Джек Ноузуорти, Кэти Райт, Шон Уэйлен, Николас Сэдлер
-
Описание: Как-то утром самый ленивый подросток в Америке обнаруживает трупы родителей с оторванными головами и замечает, что его рука стала подозрительно самостоятельной! Оказывается, в него вселились древние силы зла…
-

-
Сэмпл: https://www.sendspace.com/file/eui025
-
Тип релиза: BDRip 1080p
Контейнер: MKV
Видео: 1 920x1 040p (1.85:1), 23.976 fps, 11.0 Mbps
Аудио 1: русский / AC3 / 5.1 / 48 kHz / 384 kbps / 16 bit || DUB
Аудио 2: русский / AC3 / 2.0 / 48 kHz / 192 kbps / 16 bit || DVO
Аудио 3: датский / DTS / 5.1 / 48 kHz / 1509 kbps / 24 bit || ENG
Формат субтитров: softsub (SRT)
Главы: есть
Доп. информация
Рип от MediaClub, оригинал заменен на DTS, подправлены русские субтитры (орфографические ошибки) и подогнана дорожка отсюда [url=http://***/forum/viewtopic.php?t=56314]http://***/forum/viewtopic.php?t=56314[/url] Всем авторам спасибо.
MediaInfo
General
Unique ID : 222583642511162718790535668438701312691 (0xA7740CDB7FFBB576BDBCD405CB860AB3)
Complete name : C:\Users\ALEX\Downloads\Фильмы\HD\Idle Hands.1999.BDRip.1080p.2xRus.Eng.Subs.Chpt.mkv
Format : Matroska
Format version : Version 4 / Version 2
File size : 8.41 GiB
Duration : 1h 32mn
Overall bit rate : 13.1 Mbps
Encoded date : UTC 2014-09-04 16:14:54
Writing application : mkvmerge v6.6.0 ('The Edge Of The In Between') built on Dec 1 2013 17:55:00
Writing library : libebml v1.3.0 + libmatroska v1.4.1
Video
ID : 1
Format : AVC
Format/Info : Advanced Video Codec
Format profile : High@L4.1
Format settings, CABAC : Yes
Format settings, ReFrames : 4 frames
Codec ID : V_MPEG4/ISO/AVC
Duration : 1h 32mn
Bit rate : 11.0 Mbps
Width : 1 920 pixels
Height : 1 040 pixels
Display aspect ratio : 1.85:1
Frame rate mode : Constant
Frame rate : 23.976 fps
Color space : YUV
Chroma subsampling : 4:2:0
Bit depth : 8 bits
Scan type : Progressive
Bits/(Pixel*Frame) : 0.230
Stream size : 6.90 GiB (82%)
Title : MediaClub
Writing library : x264 core 130 r2273 b3065e6
Encoding settings : cabac=1 / ref=4 / deblock=1:-3:-3 / analyse=0x3:0x133 / me=umh / subme=11 / psy=1 / psy_rd=1.00:0.20 / mixed_ref=1 / me_range=48 / chroma_me=1 / trellis=2 / 8x8dct=1 / cqm=0 / deadzone=21,11 / fast_pskip=0 / chroma_qp_offset=-3 / threads=12 / lookahead_threads=2 / sliced_threads=0 / nr=0 / decimate=0 / interlaced=0 / bluray_compat=0 / constrained_intra=0 / bframes=8 / b_pyramid=2 / b_adapt=2 / b_bias=0 / direct=3 / weightb=1 / open_gop=0 / weightp=2 / keyint=240 / keyint_min=23 / scenecut=40 / intra_refresh=0 / rc=2pass / mbtree=0 / bitrate=11000 / ratetol=1.0 / qcomp=0.60 / qpmin=0 / qpmax=69 / qpstep=4 / cplxblur=20.0 / qblur=0.5 / ip_ratio=1.40 / pb_ratio=1.30 / aq=1:1.00
Language : English
Default : Yes
Forced : No
Audio #1
ID : 2
Format : AC-3
Format/Info : Audio Coding 3
Mode extension : CM (complete main)
Format settings, Endianness : Big
Codec ID : A_AC3
Duration : 1h 32mn
Bit rate mode : Constant
Bit rate : 384 Kbps
Channel(s) : 6 channels
Channel positions : Front: L C R, Side: L R, LFE
Sampling rate : 48.0 KHz
Bit depth : 16 bits
Compression mode : Lossy
Stream size : 253 MiB (3%)
Title : DUB
Language : Russian
Default : Yes
Forced : No
Audio #2
ID : 3
Format : AC-3
Format/Info : Audio Coding 3
Mode extension : CM (complete main)
Format settings, Endianness : Big
Codec ID : A_AC3
Duration : 1h 32mn
Bit rate mode : Constant
Bit rate : 192 Kbps
Channel(s) : 2 channels
Channel positions : Front: L R
Sampling rate : 48.0 KHz
Bit depth : 16 bits
Compression mode : Lossy
Stream size : 126 MiB (1%)
Title : DVO (ВидеоСервис)
Language : Russian
Default : No
Forced : No
Audio #3
ID : 4
Format : DTS
Format/Info : Digital Theater Systems
Mode : 16
Format settings, Endianness : Big
Codec ID : A_DTS
Duration : 1h 32mn
Bit rate mode : Constant
Bit rate : 1 509 Kbps
Channel(s) : 6 channels
Channel positions : Front: L C R, Side: L R, LFE
Sampling rate : 48.0 KHz
Bit depth : 24 bits
Compression mode : Lossy
Stream size : 994 MiB (12%)
Title : Original
Language : English
Default : No
Forced : No
Text #1
ID : 5
Format : UTF-8
Codec ID : S_TEXT/UTF8
Codec ID/Info : UTF-8 Plain Text
Title : Full
Language : Russian
Default : No
Forced : No
Text #2
ID : 6
Format : UTF-8
Codec ID : S_TEXT/UTF8
Codec ID/Info : UTF-8 Plain Text
Title : Full
Language : English
Default : No
Forced : No
Menu
00:00:00.000 : en:Chapter 01
00:08:23.127 : en:Chapter 02
00:10:03.602 : en:Chapter 03
00:15:27.468 : en:Chapter 04
00:22:23.216 : en:Chapter 05
00:27:08.126 : en:Chapter 06
00:34:44.582 : en:Chapter 07
00:38:31.892 : en:Chapter 08
00:41:58.724 : en:Chapter 09
00:44:42.680 : en:Chapter 10
00:52:19.427 : en:Chapter 11
01:02:12.562 : en:Chapter 12
01:08:39.698 : en:Chapter 13
01:14:34.678 : en:Chapter 14
01:19:28.305 : en:Chapter 15
01:22:25.523 : en:Chapter 16
Скриншоты
Скачать

Скачать торрент!

Как скачивать? · Что такое торрент? · Рейтинг и ограничения

Сайт не распространяет и не хранит электронные версии произведений, а лишь предоставляет доступ к создаваемому пользователями каталогу ссылок на торрент-файлы, которые содержат только списки хеш-сумм

[Профиль] [ЛС]
Показать сообщения:    
Ответить на тему

Текущее время: Сегодня 10:54

Часовой пояс: GMT + 4



Вы не можете начинать темы
Вы не можете отвечать на сообщения
Вы не можете редактировать свои сообщения
Вы не можете удалять свои сообщения
Вы не можете голосовать в опросах
Вы не можете прикреплять файлы к сообщениям
Вы не можете скачивать файлы