Цветы превратились в искры / Phool Bane Angaarey (К.С. Бокадия / K.C. Bokadia) [1991, Индия, Драма, SATRip] MVO (Zee TV)

Ответить на тему
 
Автор Сообщение

user ®

Стаж: 12 лет

Сообщений: 15092

Пост Пост: #1 от 05-Сен-2014 04:55

[Цитировать]

Цветы превратились в искры / Phool Bane Angaarey
-Страна: Индия
Жанр: Комедия, мелодрама
Год выпуска: 1991
Продолжительность: 02:23:24-Перевод: Профессиональный (многоголосый закадровый) - Zee TV
Субтитры: Нет--Режиссер: К.С. Бокадия / K.C. Bokadia-В ролях: Рекха, Раджникант, Прем Чопра, Чаран Радж, Шафи Инамдар, Далип Тахил, Алок Натх, Бинду, Бина-Описание: Бишамбер Прасад местный авторитет устраняет неугодного ему правдолюбца, который выставил свою кандидатуру на выборах. Инспектор Ранджит Сингх берется за расследование убийства, однако ему вставляют палки в колеса. Вскоре Ранджита тоже убивают, вдовой остается его красавица жена Намрата. Намрата клянется отомстить за смерть своего мужа, но как ей удастся сделать то, чего не смог инспектор полиции?...-- | --Качество видео: SATRip
Формат видео: AVI-Видео: 656x336 (1.95:1), 25 fps, XviD build 50 ~1197 kbps avg, 0.22 bit/pixel
Аудио: 48 kHz, AC3 Dolby Digital, 2/0 (L,R) ch, ~192 kbps-Сэмпл / Sample
-
Риппер, сведение звука: soso4eg-- -
-
Скриншоты
-
MI
General
Complete name : C:\INDIYA\Tsvety.Prevratilis.V.Iskry.1991.SATRip.XviD-soso4eg.avi
Format : AVI
Format/Info : Audio Video Interleave
File size : 1.40 GiB
Duration : 2h 23mn
Overall bit rate : 1 399 Kbps
Movie name : Phoo.Bane.Angaarey.1991.SATRip.XviD-soso4eg
Director : soso4eg
Writing application : VirtualDubMod 1.5.10.3 | www.virtualdub-fr.org || (build 2550/release)
Copyright : специально для BitTorrent трекер *** (ex torrents.ru)
Comment : пер. Zee TV
Video
ID : 0
Format : MPEG-4 Visual
Format profile : Advanced Simple@L5
Format settings, BVOP : 1
Format settings, QPel : No
Format settings, GMC : No warppoints
Format settings, Matrix : Default (H.263)
Codec ID : XVID
Codec ID/Hint : XviD
Duration : 2h 23mn
Bit rate : 1 197 Kbps
Width : 656 pixels
Height : 336 pixels
Display aspect ratio : 1.952
Frame rate : 25.000 fps
Color space : YUV
Chroma subsampling : 4:2:0
Bit depth : 8 bits
Scan type : Progressive
Compression mode : Lossy
Bits/(Pixel*Frame) : 0.217
Stream size : 1.20 GiB (86%)
Writing library : XviD 1.2.1 (UTC 2008-12-04)
Audio
ID : 1
Format : AC-3
Format/Info : Audio Coding 3
Mode extension : CM (complete main)
Format settings, Endianness : Big
Codec ID : 2000
Duration : 2h 23mn
Bit rate mode : Constant
Bit rate : 192 Kbps
Channel(s) : 2 channels
Channel positions : Front: L R
Sampling rate : 48.0 KHz
Bit depth : 16 bits
Compression mode : Lossy
Delay relative to video : 8ms
Stream size : 197 MiB (14%)
Alignment : Split accross interleaves
Interleave, duration : 40 ms (1.00 video frame)
Interleave, preload duration : 500 ms
Скачать

Скачать торрент! Цветы превратились в искры / Phool Bane Angaarey (К.С. Бокадия / K.C. Bokadia) [1991, Индия, Драма, SATRip] MVO (Zee TV)

Как скачивать? · Что такое торрент? · Рейтинг и ограничения

Сайт не распространяет и не хранит электронные версии произведений, а лишь предоставляет доступ к создаваемому пользователями каталогу ссылок на торрент-файлы, которые содержат только списки хеш-сумм

[Профиль] [ЛС]
Показать сообщения:    
Ответить на тему

Текущее время: Сегодня 06:13

Часовой пояс: GMT + 4



Вы не можете начинать темы
Вы не можете отвечать на сообщения
Вы не можете редактировать свои сообщения
Вы не можете удалять свои сообщения
Вы не можете голосовать в опросах
Вы не можете прикреплять файлы к сообщениям
Вы не можете скачивать файлы