Джек Фрост / Jack Frost (Трой Миллер / Troy Miller) [1998, США, фэнтези, драма, комедия, семейный, WEB-DL 1080p] Dub + AVO (Кашкин) + Original Eng + Sub Eng

Ответить на тему
 
Автор Сообщение

user ®

Стаж: 7 лет 7 месяцев

Сообщений: 20008

Пост Пост: #1 от 05-Сен-2014 04:55

[Цитировать]

Джек Фрост / Jack Frost Страна: США
Студия: Warner Bros., Azoff Entertainment, The Canton Company
Жанр: фэнтези, драма, комедия, семейный
Год выпуска: 1998
Продолжительность: 01:41:23
Перевод 1: Профессиональный (полное дублирование) Варус Видео
Перевод 2: Авторский (двухголосый закадровый) Александр Кашкин (Первомайский)
Cубтитры: английские SRT
Оригинальная дорожка: Английский
Режиссер: Трой Миллер / Troy Miller
В ролях: Майкл Китон, Келли Престон, Джозеф Кросс, Марк Эдди, Эндрю Лоуренс, Эли Мариентал, Уилл Ротхаар, Мика Бурем, Бенжамин Брок, Тейлор Хэндли
Описание: Джек Фрост, большая часть жизни которого проходит в разъездах, почти не видится со своим любимым сыном Чарли. Джек погибает в автомобильной катастрофе, но судьба дарит ему еще один шанс. Шанс вернуться. На этот раз в качестве… снеговика. Невероятные приключения начинаются…

Качество видео: WEB-DL 1080p
Формат видео: MKV
Видео кодек: H264
Аудио кодек: AC3
Видео: 1912x798 (2,40:1) 23.976 fps, ~4413 kbps avg, 0.121 bit/pixel
Аудио 1: 48 kHz, AC3 Dolby Digital, 2/0 (L,R) ch, ~192 kbps Дубляж
Аудио 2: 48 kHz, AC3 Dolby Digital, 2/0 (L,R) ch, ~192 kbps Кашкин
Аудио 3: 48 kHz, AC3 Dolby Digital, 3/2 (L,C,R,l,r) + LFE ch, ~384 kbps Оригинал

MediaInfo
Полное имя : Джек Фрост 1998.mkv
Формат : Matroska
Версия формата : Version 4 / Version 2
Размер файла : 3,74 Гбайт
Продолжительность : 1 ч. 41 м.
Общий поток : 5286 Кбит/сек
Дата кодирования : UTC 2014-09-03 13:43:54
Программа кодирования : mkvmerge v7.1.0 ('Good Love') 64bit built on Jul 27 2014 13:06:55
Библиотека кодирования : libebml v1.3.0 + libmatroska v1.4.1
DURATION : 01:41:23.712000000
NUMBER_OF_FRAMES : 190116
NUMBER_OF_BYTES : 146009088
_STATISTICS_WRITING_APP : mkvmerge v7.1.0 ('Good Love') 64bit built on Jul 27 2014 13:06:55
_STATISTICS_WRITING_DATE_UTC : 2014-09-03 13:43:54
_STATISTICS_TAGS : BPS DURATION NUMBER_OF_FRAMES NUMBER_OF_BYTES
Видео
Идентификатор : 1
Формат : AVC
Формат/Информация : Advanced Video Codec
Профиль формата : High@L4.0
Параметр CABAC формата : Да
Параметр ReFrames формата : 5 кадров
Идентификатор кодека : V_MPEG4/ISO/AVC
Продолжительность : 1 ч. 41 м.
Битрейт : 4413 Кбит/сек
Ширина : 1912 пикселей
Высота : 798 пикселей
Соотношение сторон : 2,40:1
Режим частоты кадров : Постоянный
Частота кадров : 23,976 кадра/сек
Цветовое пространство : YUV
Субдискретизация насыщенности : 4:2:0
Битовая глубина : 8 бит
Тип развёртки : Прогрессивная
Бит/(Пиксели*Кадры) : 0.121
Размер потока : 3,13 Гбайт (83%)
Язык : English
Default : Да
Forced : Нет
Основные цвета : BT.709
Характеристики трансфера : BT.709
Коэффициенты матрицы : BT.709
Аудио #1
Идентификатор : 2
Формат : AC-3
Формат/Информация : Audio Coding 3
Расширение режима : CM (complete main)
Параметр Endianness формата : Big
Идентификатор кодека : A_AC3
Продолжительность : 1 ч. 41 м.
Вид битрейта : Постоянный
Битрейт : 192 Кбит/сек
Каналы : 2 канала
Расположение каналов : Front: L R
Частота : 48,0 КГц
Битовая глубина : 16 бит
Метод сжатия : С потерями
Размер потока : 139 Мбайт (4%)
Заголовок : Dub
Язык : Russian
Default : Да
Forced : Нет
Аудио #2
Идентификатор : 3
Формат : AC-3
Формат/Информация : Audio Coding 3
Расширение режима : CM (complete main)
Параметр Endianness формата : Big
Идентификатор кодека : A_AC3
Продолжительность : 1 ч. 41 м.
Вид битрейта : Постоянный
Битрейт : 192 Кбит/сек
Каналы : 2 канала
Расположение каналов : Front: L R
Частота : 48,0 КГц
Битовая глубина : 16 бит
Метод сжатия : С потерями
Размер потока : 139 Мбайт (4%)
Заголовок : AVO
Язык : Russian
Default : Нет
Forced : Нет
Аудио #3
Идентификатор : 4
Формат : AC-3
Формат/Информация : Audio Coding 3
Расширение режима : CM (complete main)
Параметр Endianness формата : Big
Идентификатор кодека : A_AC3
Продолжительность : 1 ч. 41 м.
Вид битрейта : Постоянный
Битрейт : 384 Кбит/сек
Каналы : 6 каналов
Расположение каналов : Front: L C R, Side: L R, LFE
Частота : 48,0 КГц
Битовая глубина : 16 бит
Метод сжатия : С потерями
Размер потока : 278 Мбайт (7%)
Заголовок : Org
Язык : English
Default : Нет
Forced : Нет
Текст
Идентификатор : 5
Формат : UTF-8
Идентификатор кодека : S_TEXT/UTF8
Идентификатор кодека/Информация : UTF-8 Plain Text
Язык : English
Default : Нет
Forced : Нет
Меню
00:00:00.000 : en:The Jack Frost Band.
00:03:05.000 : en:Brain freeze, Rory.
00:07:18.000 : en:Dad's home.
00:12:23.000 : en:A gift with magic powers.
00:15:36.000 : en:Gabby's song.
00:18:04.000 : en:Missing in action.
00:22:33.000 : en:The tricky part.
00:26:59.000 : en:Botched plans.
00:29:13.000 : en:An accident.
00:32:00.000 : en:Not okay.
00:35:18.000 : en:A snowman.
00:39:10.000 : en:Dad's home again.
00:43:13.000 : en:Thanks for the lift.
00:48:12.000 : en:Why me?
00:50:32.000 : en:Wizard of blizzard.
00:53:20.000 : en:Snow fooling.
00:58:08.000 : en:The igloo project.
01:02:47.000 : en:Sort of here now.
01:05:06.000 : en:What's the matter with Charlie?
01:07:30.000 : en:Getting the J Shot.
01:11:22.000 : en:The real deal.
01:14:41.000 : en:Second chances.
01:17:55.000 : en:Dad's pride.
01:21:46.000 : en:Melt down mode.
01:26:49.000 : en:Jack's mark on the world.
01:29:43.000 : en:A family Christmas.
01:34:56.000 : en:End Credits.
Сравнение с HDTV 1080i
[url=http://***/forum/viewtopic.php?t=4640354]HDTV 1080i[/url]

WEB-DL 1080p
Скриншоты
Скачать

Скачать торрент!

Как скачивать? · Что такое торрент? · Рейтинг и ограничения

Сайт не распространяет и не хранит электронные версии произведений, а лишь предоставляет доступ к создаваемому пользователями каталогу ссылок на торрент-файлы, которые содержат только списки хеш-сумм

[Профиль] [ЛС]
Показать сообщения:    
Ответить на тему

Текущее время: Сегодня 19:24

Часовой пояс: GMT + 4



Вы не можете начинать темы
Вы не можете отвечать на сообщения
Вы не можете редактировать свои сообщения
Вы не можете удалять свои сообщения
Вы не можете голосовать в опросах
Вы не можете прикреплять файлы к сообщениям
Вы не можете скачивать файлы