Голгофа / Calvary (Джон Майкл МакДона / John Michael McDonagh) [2014, Ирландия, Великобритания, Драма, трагикомедия, BDRip-AVC] MVO (Лицензия)

Ответить на тему
 
Автор Сообщение

user ®

Стаж: 7 лет 7 месяцев

Сообщений: 20008

Пост Пост: #1 от 04-Сен-2014 07:55

[Цитировать]

Голгофа / Calvary
Страна: Ирландия, Великобритания
Жанр: Драма, трагикомедия
Год выпуска: 2014
Продолжительность: 01:41:30
Перевод: Профессиональный (многоголосый закадровый) Лицензия
Cубтитры: нет
Режиссер: Джон Майкл МакДона / John Michael McDonagh
В ролях: Брендан Глисон, Крис О’Дауд, Келли Райлли, Эйден Гиллен, Дилан Моран, Исаак Де Банколе, М. Эммет Уолш, Мари-Жозе Кроз, Домналл Глисон, Дэвид Уилмо
Описание: Давно не было такой недельки у отца Джеймса: исповедь, начинающая со слов «я собираюсь вас убить», поджог церкви и драка в пабе. Быть священником и направлять свою паству непросто. Без чувства юмора, иронии и прощения не обойтись. Добрые намерения святого отца, который стремится к тому, чтобы мир стал лучше, постоянно наталкиваются на злобу и вражду со стороны жителей городка, где он служит. Когда во время исповеди герой, подвергается угрозе, ему придется иметь дело с вырвавшимися на свободу силами тьмы.
Сэмпл: http://multi-up.com/996607
Исходник: Technical Specs - Blu-ray BD-25 Single-Layer Disc;
релиз от НDCLUB
Качество видео: BDRip-AVC
Формат видео: MKV
Видео: AVC, 960x408, 24.000 fps, 1673 Kbps
Аудио: 48 kHz, AC3 Dolby Digital, 3/2 (L,C,R,l,r) + LFE ch, ~384 kbps
MediaInfo
General
Unique ID : 178109695819700753717990656613554465498 (0x85FEADFDF7AD808790343D14D5022ADA)
Complete name : F:\L`a Cinema\Европа\Golgofa.(2014).mkv
Format : Matroska
Format version : Version 2
File size : 1.46 GiB
Duration : 1h 41mn
Overall bit rate : 2 059 Kbps
Encoded date : UTC 2014-06-25 08:52:07
Writing application : mkvmerge v6.1.0 ('Old Devil') built on Mar 4 2013 09:10:42
Writing library : libebml v1.3.0 + libmatroska v1.4.0
Video
ID : 1
Format : AVC
Format/Info : Advanced Video Codec
Format profile : High@L4.1
Format settings, CABAC : Yes
Format settings, ReFrames : 12 frames
Codec ID : V_MPEG4/ISO/AVC
Duration : 1h 41mn
Bit rate : 1 673 Kbps
Width : 960 pixels
Height : 408 pixels
Display aspect ratio : 2.35:1
Frame rate mode : Constant
Frame rate : 24.000 fps
Color space : YUV
Chroma subsampling : 4:2:0
Bit depth : 8 bits
Scan type : Progressive
Bits/(Pixel*Frame) : 0.178
Stream size : 1.16 GiB (79%)
Writing library : x264 core 130 r2273 b3065e6
Encoding settings : cabac=1 / ref=12 / deblock=1:-3:-3 / analyse=0x3:0x133 / me=esa / subme=11 / psy=1 / psy_rd=1.00:0.50 / mixed_ref=1 / me_range=24 / chroma_me=1 / trellis=2 / 8x8dct=1 / cqm=0 / deadzone=21,11 / fast_pskip=0 / chroma_qp_offset=-3 / threads=16 / lookahead_threads=4 / sliced_threads=0 / slices=4 / nr=0 / decimate=0 / interlaced=0 / bluray_compat=0 / constrained_intra=0 / bframes=10 / b_pyramid=2 / b_adapt=2 / b_bias=0 / direct=3 / weightb=1 / open_gop=0 / weightp=2 / keyint=250 / keyint_min=23 / scenecut=40 / intra_refresh=0 / rc_lookahead=50 / rc=2pass / mbtree=1 / bitrate=1673 / ratetol=1.0 / qcomp=0.70 / qpmin=0 / qpmax=69 / qpstep=4 / cplxblur=20.0 / qblur=0.5 / ip_ratio=1.40 / aq=2:1.50
Default : Yes
Forced : No
Audio
ID : 2
Format : AC-3
Format/Info : Audio Coding 3
Mode extension : CM (complete main)
Format settings, Endianness : Big
Codec ID : A_AC3
Duration : 1h 41mn
Bit rate mode : Constant
Bit rate : 384 Kbps
Channel(s) : 6 channels
Channel positions : Front: L C R, Side: L R, LFE
Sampling rate : 48.0 KHz
Bit depth : 16 bits
Compression mode : Lossy
Stream size : 279 MiB (19%)
Default : Yes
Forced : No
Скриншот c названием фильма Скриншоты
Скачать

Скачать торрент!

Как скачивать? · Что такое торрент? · Рейтинг и ограничения

Сайт не распространяет и не хранит электронные версии произведений, а лишь предоставляет доступ к создаваемому пользователями каталогу ссылок на торрент-файлы, которые содержат только списки хеш-сумм

[Профиль] [ЛС]
Показать сообщения:    
Ответить на тему

Текущее время: Сегодня 14:30

Часовой пояс: GMT + 4



Вы не можете начинать темы
Вы не можете отвечать на сообщения
Вы не можете редактировать свои сообщения
Вы не можете удалять свои сообщения
Вы не можете голосовать в опросах
Вы не можете прикреплять файлы к сообщениям
Вы не можете скачивать файлы