А вот и она / And So It Goes (Роб Райнер / Rob Reiner) [2014 г., США, драма, мелодрама, комедия, WEB-DLRip] Dub

Ответить на тему
 
Автор Сообщение

user ®

Стаж: 7 лет 7 месяцев

Сообщений: 20008

Пост Пост: #1 от 04-Сен-2014 01:35

[Цитировать]

А вот и она / And So It Goes-«Миллион причин не любить Орена. Спроси любого»- -Страна: США
Жанр: драма, мелодрама, комедия
Год выпуска: 2014
Продолжительность: 01:29:38
-Перевод: Профессиональный (дублированный)
Cубтитры: нет
Оригинальная аудиодорожка: нет
-Режиссер: Роб Райнер / Rob Reiner
В ролях: Майкл Дуглас, Дайан Китон, Стерлинг Джеринс, Энни Пэррис, Остин Лайзи, Майкл Терра, Симпкинс Сойер, Максвелл Симкинс, Морис Джонс, Йайа ДаКоста и др.
Описание: Жизнь закоренелого эгоиста в одночасье меняется, когда он вдруг знакомится со своей внучкой, о существовании которой даже не подозревал.
-
Доп. информация: Релиз от Scarabey
Сэмпл: http://multi-up.com/996370
-Качество видео: WEB-DLRip
Формат видео: AVI
Видео: 720x320 (2.25:1), 25 fps, XviD build 73 ~1913 kbps avg, 0.33 bit/pixel
Аудио: 48 kHz, AC3 Dolby Digital, 3/2 (L,C,R,l,r) + LFE ch, ~384 kbps | iTunes

» MediaInfo
General
Complete name : E:\A_vot_i_ona_WEB-DLRip_[scarabey].avi
Format : AVI
Format/Info : Audio Video Interleave
File size : 1.44 GiB
Duration : 1h 29mn
Overall bit rate : 2 307 Kbps
Writing application : VirtualDubMod 1.5.10.3 | www.virtualdub-fr.org || (build 2550/release)
Writing library : VirtualDubMod build 2550/release
Video
ID : 0
Format : MPEG-4 Visual
Format profile : Advanced Simple@L5
Format settings, BVOP : 1
Format settings, QPel : No
Format settings, GMC : No warppoints
Format settings, Matrix : Custom
Codec ID : XVID
Codec ID/Hint : XviD
Duration : 1h 29mn
Bit rate : 1 914 Kbps
Width : 720 pixels
Height : 320 pixels
Display aspect ratio : 2.25:1
Frame rate : 25.000 fps
Color space : YUV
Chroma subsampling : 4:2:0
Bit depth : 8 bits
Scan type : Progressive
Compression mode : Lossy
Bits/(Pixel*Frame) : 0.332
Stream size : 1.20 GiB (83%)
Writing library : XviD 73
Audio
ID : 1
Format : AC-3
Format/Info : Audio Coding 3
Mode extension : CM (complete main)
Format settings, Endianness : Big
Codec ID : 2000
Duration : 1h 29mn
Bit rate mode : Constant
Bit rate : 384 Kbps
Channel(s) : 6 channels
Channel positions : Front: L C R, Side: L R, LFE
Sampling rate : 48.0 KHz
Bit depth : 16 bits
Compression mode : Lossy
Stream size : 246 MiB (17%)
Alignment : Split accross interleaves
Interleave, duration : 40 ms (1.00 video frame)
Interleave, preload duration : 500 ms
» Скриншот с названием фильма » Скриншоты
Скачать

Скачать торрент!

Как скачивать? · Что такое торрент? · Рейтинг и ограничения

Сайт не распространяет и не хранит электронные версии произведений, а лишь предоставляет доступ к создаваемому пользователями каталогу ссылок на торрент-файлы, которые содержат только списки хеш-сумм

[Профиль] [ЛС]
Показать сообщения:    
Ответить на тему

Текущее время: Сегодня 14:10

Часовой пояс: GMT + 4



Вы не можете начинать темы
Вы не можете отвечать на сообщения
Вы не можете редактировать свои сообщения
Вы не можете удалять свои сообщения
Вы не можете голосовать в опросах
Вы не можете прикреплять файлы к сообщениям
Вы не можете скачивать файлы