Голгофа / Calvary (Джон Майкл МакДона / John Michael McDonagh) [2014 г., Ирландия, Великобритания, драма, комедия, HDRip] MVO (Лицензия)

Ответить на тему
 
Автор Сообщение

user ®

Стаж: 7 лет 7 месяцев

Сообщений: 20008

Пост Пост: #1 от 04-Сен-2014 01:35

[Цитировать]

Голгофа / Calvary-«Убить священника в воскресенье - хорошая идея»- -Страна: Ирландия, Великобритания
Жанр: драма, комедия
Год выпуска: 2014
Продолжительность: 01:41:30
-Перевод: Профессиональный (многоголосый закадровый)
Cубтитры: нет
Оригинальная аудиодорожка: нет
-Режиссер: Джон Майкл МакДона / John Michael McDonagh
В ролях: Брендан Глисон (Father James Lavelle), Крис О’Дауд (Jack Brennan), Келли Райлли (Fiona Lavelle), Эйден Гиллен (Dr. Frank Harte), Дилан Моран (Michael Fitzgerald), Исаак Де Банколе (Simon), М. Эммет Уолш (The Writer), Мари-Жозе Кроз (Teresa), Донал Глисон (Freddie Joyce), Дэвид Уилмот (Father Leary), Пэт Шорт (Brendan Lynch), Гари Лайдон (Inspector Stanton) и др.
Описание: Давно не было такой недельки у отца Джеймса: исповедь, начинающая со слов «я собираюсь вас убить», поджог церкви и драка в пабе. Быть священником и направлять свою паству непросто. Без чувства юмора, иронии и прощения не обойтись.
-
Доп. информация: Релиз от Scarabey
Сэмпл: http://multi-up.com/996620
-Качество видео: HDRip
Формат видео: AVI
Видео: 688x288 (2.39:1), 24 fps, XviD build 73 ~887 kbps avg, 0.19 bit/pixel
Аудио: 48 kHz, MPEG Layer 3, 2 ch, ~128.00 kbps avg

» MediaInfo
General
Complete name : E:\Calvary.2014_HDRip_r5_[scarabey].avi
Format : AVI
Format/Info : Audio Video Interleave
File size : 744 MiB
Duration : 1h 41mn
Overall bit rate : 1 025 Kbps
Writing application : VirtualDubMod 1.5.10.3 | www.virtualdub-fr.org || (build 2550/release)
Writing library : VirtualDubMod build 2550/release
Video
ID : 0
Format : MPEG-4 Visual
Format profile : Advanced Simple@L5
Format settings, BVOP : 1
Format settings, QPel : No
Format settings, GMC : No warppoints
Format settings, Matrix : Custom
Codec ID : XVID
Codec ID/Hint : XviD
Duration : 1h 41mn
Bit rate : 888 Kbps
Width : 688 pixels
Height : 288 pixels
Display aspect ratio : 2.40:1
Frame rate : 24.000 fps
Color space : YUV
Chroma subsampling : 4:2:0
Bit depth : 8 bits
Scan type : Progressive
Compression mode : Lossy
Bits/(Pixel*Frame) : 0.187
Stream size : 645 MiB (87%)
Writing library : XviD 73
Audio
ID : 1
Format : MPEG Audio
Format version : Version 1
Format profile : Layer 3
Codec ID : 55
Codec ID/Hint : MP3
Duration : 1h 41mn
Bit rate mode : Constant
Bit rate : 128 Kbps
Channel(s) : 2 channels
Sampling rate : 48.0 KHz
Compression mode : Lossy
Stream size : 92.9 MiB (12%)
Alignment : Aligned on interleaves
Interleave, duration : 42 ms (1.00 video frame)
Interleave, preload duration : 504 ms
» Скриншот c названием фильма » Скриншоты
Скачать

Скачать торрент!

Как скачивать? · Что такое торрент? · Рейтинг и ограничения

Сайт не распространяет и не хранит электронные версии произведений, а лишь предоставляет доступ к создаваемому пользователями каталогу ссылок на торрент-файлы, которые содержат только списки хеш-сумм

[Профиль] [ЛС]
Показать сообщения:    
Ответить на тему

Текущее время: Сегодня 03:07

Часовой пояс: GMT + 4



Вы не можете начинать темы
Вы не можете отвечать на сообщения
Вы не можете редактировать свои сообщения
Вы не можете удалять свои сообщения
Вы не можете голосовать в опросах
Вы не можете прикреплять файлы к сообщениям
Вы не можете скачивать файлы