Вероника Марс / Veronica Mars (Роб Томас / Rob Thomas) [2014, США, детектив, криминал, драма, комедия, BDRip 1080p] 2x MVO + VO + 2x Sub (Rus, Eng) + Original Eng

Ответить на тему
 
Автор Сообщение

user ®

Стаж: 7 лет 7 месяцев

Сообщений: 20008

Пост Пост: #1 от 03-Сен-2014 22:25

[Цитировать]

Вероника Марс / Veronica Mars Страна: США
Жанр: детектив, криминал, драма, комедия
Год выпуска: 2014
Продолжительность: 01:47:38
Перевод 1: Любительский (многоголосый закадровый) BaibaKo
Перевод 2: Любительский (многоголосый закадровый) Андрей Лазарчук, Евгений Кокурин, Nami Li
Перевод 3: Одноголосый закадровый qwerty
Cубтитры: русские, английские [SDH]
Оригинальная аудиодорожка: английский
-
Режиссер: Роб Томас / Rob Thomas
В ролях: Кристен Белл, Джейсон Доринг, Кристен Риттер, Райан Хансен, Фрэнсис Капра, Перси Даггс III, Габи Хоффманн, Крис Лоуэлл, Тина Мажорино, Джерри О’Коннелл
-
Описание: Когда-то помогая отцу распутывать преступления в родном городе Нептун, Вероника Марс понимала, что это не будет длиться вечно. Уехав в Нью-Йорк и получив должность адвоката в хорошей фирме, она была уверена, что вырвалась из замкнутого круга. Она ошибалась.
Ее бывший парень Логан Экхолз обвиняется в убийстве своей подруги - молодой старлетки. Приняв решение помочь ему, Вероника возвращается в Нептун и начинает собственное расследование. Внезапно она оказывается в самой гуще событий, окруженная друзьями и врагами. И самый большой вопрос - кому можно верить, а кому - нет...

Тип релиза: BDRip 1080p
Контейнер: MKV
Видео: H.264 / NTSC 16:9 / 1918x800 (2.40:1) / 13992 kbps / 23,976 fps / 0.371 bit/pixel / High@L4.1
Аудио 1: Russian / DTS / 48 kHz / 5.1 Ch / 1510 kbps / 24 bit / MVO / BaibaKo
Аудио 2: Russian / AC3 / 48 kHz / 2 Ch / 192 kbps / 16 bit / MVO / Андрей Лазарчук, Евгений Кокурин, Nami Li
Аудио 3: Russian / AC3 / 48 kHz / 5.1 Ch / 384 kbps / 16 bit / VO / qwerty
Аудио 4: English / DTS / 48 kHz / 5.1 Ch / 1510 kbps / 24 bit / Original
Формат субтитров: softsub (SRT)
Навигация по главам: есть

Сэмпл MediaInfo
Общее
Уникальный идентификатор : 218090490659959110412479562279238460298 (0xA412B35E1D1F567A889115FB0A5F638A)
Полное имя : W:\BDRip 1080p\Veronica Mars.2014.BDRip.1080p.mkv
Формат : Matroska
Версия формата : Version 4 / Version 2
Размер файла : 13,2 Гбайт
Продолжительность : 1 ч. 47 м.
Общий поток : 17,6 Мбит/сек
Дата кодирования : UTC 2014-09-02 00:48:09
Программа кодирования : mkvmerge v7.1.0 ('Good Love') 64bit built on Jul 27 2014 13:06:55
Библиотека кодирования : libebml v1.3.0 + libmatroska v1.4.1
DURATION : 01:47:38.667000000
NUMBER_OF_FRAMES : 605500
NUMBER_OF_BYTES : 1218266000
_STATISTICS_WRITING_APP : mkvmerge v7.1.0 ('Good Love') 64bit built on Jul 27 2014 13:06:55
_STATISTICS_WRITING_DATE_UTC : 2014-09-02 00:48:09
_STATISTICS_TAGS : BPS DURATION NUMBER_OF_FRAMES NUMBER_OF_BYTES
Видео
Идентификатор : 1
Формат : AVC
Формат/Информация : Advanced Video Codec
Профиль формата : High@L4.1
Параметр CABAC формата : Да
Параметр ReFrames формата : 5 кадров
Идентификатор кодека : V_MPEG4/ISO/AVC
Продолжительность : 1 ч. 47 м.
Битрейт : 13,6 Мбит/сек
Ширина : 1918 пикселей
Высота : 800 пикселей
Соотношение сторон : 2,40:1
Режим частоты кадров : Постоянный
Частота кадров : 23,976 кадра/сек
Цветовое пространство : YUV
Субдискретизация насыщенности : 4:2:0
Битовая глубина : 8 бит
Тип развёртки : Прогрессивная
Бит/(Пиксели*Кадры) : 0.371
Размер потока : 10,3 Гбайт (78%)
Библиотека кодирования : x264 core 142 r2431+42 c69a006 tMod [8-bit@all X86_64]
Настройки программы : cabac=1 / ref=5 / deblock=1:-3:-3 / analyse=0x3:0x133 / me=tesa / subme=11 / psy=1 / fade_compensate=0.00 / psy_rd=1.00:0.00 / mixed_ref=1 / me_range=16 / chroma_me=1 / trellis=2 / 8x8dct=1 / cqm=0 / deadzone=21,11 / fast_pskip=0 / chroma_qp_offset=-2 / threads=12 / lookahead_threads=3 / sliced_threads=0 / nr=0 / decimate=1 / interlaced=0 / bluray_compat=0 / constrained_intra=0 / fgo=0 / bframes=10 / b_pyramid=2 / b_adapt=2 / b_bias=0 / direct=3 / weightb=1 / open_gop=0 / weightp=2 / keyint=250 / keyint_min=23 / scenecut=40 / intra_refresh=0 / rc=crf / mbtree=0 / crf=16.0000 / qcomp=0.75 / qpmin=0:0:0 / qpmax=69:69:69 / qpstep=4 / ip_ratio=1.10 / pb_ratio=1.30 / aq=4:0.75 / aq-sensitivity=10.00 / aq-factor=1.00:1.00:1.00 / aq2=0 / aq3=0
Язык : English
Default : Да
Forced : Нет
DURATION : 01:47:37.660000000
NUMBER_OF_FRAMES : 154829
NUMBER_OF_BYTES : 11294290946
_STATISTICS_WRITING_APP : mkvmerge v7.1.0 ('Good Love') 64bit built on Jul 27 2014 13:06:55
_STATISTICS_WRITING_DATE_UTC : 2014-09-02 00:48:09
_STATISTICS_TAGS : BPS DURATION NUMBER_OF_FRAMES NUMBER_OF_BYTES
Коэффициенты матрицы : BT.709
Аудио #1
Идентификатор : 2
Формат : DTS
Формат/Информация : Digital Theater Systems
Режим : 16
Параметр Endianness формата : Big
Идентификатор кодека : A_DTS
Продолжительность : 1 ч. 47 м.
Вид битрейта : Постоянный
Битрейт : 1510 Кбит/сек
Каналы : 6 каналов
Расположение каналов : Front: L C R, Side: L R, LFE
Частота : 48,0 КГц
Битовая глубина : 24 бит
Метод сжатия : С потерями
Размер потока : 1,14 Гбайт (9%)
Заголовок : MVO / BaibaKo
Язык : Russian
Default : Да
Forced : Нет
Аудио #2
Идентификатор : 3
Формат : AC-3
Формат/Информация : Audio Coding 3
Расширение режима : CM (complete main)
Параметр Endianness формата : Big
Идентификатор кодека : A_AC3
Продолжительность : 1 ч. 47 м.
Вид битрейта : Постоянный
Битрейт : 192 Кбит/сек
Каналы : 2 канала
Расположение каналов : Front: L R
Частота : 48,0 КГц
Битовая глубина : 16 бит
Метод сжатия : С потерями
Размер потока : 148 Мбайт (1%)
Заголовок : MVO / Андрей Лазарчук, Евгений Кокурин, Nami Li
Язык : Russian
Default : Нет
Forced : Нет
Аудио #3
Идентификатор : 4
Формат : AC-3
Формат/Информация : Audio Coding 3
Расширение режима : CM (complete main)
Параметр Endianness формата : Big
Идентификатор кодека : A_AC3
Продолжительность : 1 ч. 47 м.
Вид битрейта : Постоянный
Битрейт : 384 Кбит/сек
Каналы : 6 каналов
Расположение каналов : Front: L C R, Side: L R, LFE
Частота : 48,0 КГц
Битовая глубина : 16 бит
Метод сжатия : С потерями
Размер потока : 296 Мбайт (2%)
Заголовок : VO / qwerty
Язык : Russian
Default : Нет
Forced : Нет
Аудио #4
Идентификатор : 5
Формат : DTS
Формат/Информация : Digital Theater Systems
Режим : 16
Параметр Endianness формата : Big
Идентификатор кодека : A_DTS
Продолжительность : 1 ч. 47 м.
Вид битрейта : Постоянный
Битрейт : 1509 Кбит/сек
Каналы : 6 каналов
Расположение каналов : Front: L C R, Side: L R, LFE
Частота : 48,0 КГц
Битовая глубина : 24 бит
Метод сжатия : С потерями
Размер потока : 1,13 Гбайт (9%)
Заголовок : Original
Язык : English
Default : Нет
Forced : Нет
Текст #1
Идентификатор : 6
Формат : UTF-8
Идентификатор кодека : S_TEXT/UTF8
Идентификатор кодека/Информация : UTF-8 Plain Text
Заголовок : RUS
Язык : Russian
Default : Нет
Forced : Нет
Текст #2
Идентификатор : 7
Формат : UTF-8
Идентификатор кодека : S_TEXT/UTF8
Идентификатор кодека/Информация : UTF-8 Plain Text
Заголовок : Original / SDH
Язык : English
Default : Нет
Forced : Нет
Меню
00:00:00.000 : en:00:00:00.000
00:08:30.301 : en:00:08:30.301
00:18:54.633 : en:00:18:54.633
00:28:13.942 : en:00:28:13.942
00:39:44.799 : en:00:39:44.799
00:50:01.290 : en:00:50:01.290
00:58:07.859 : en:00:58:07.859
01:08:18.928 : en:01:08:18.928
01:17:10.459 : en:01:17:10.459
01:26:50.789 : en:01:26:50.789
01:36:28.324 : en:01:36:28.324
01:40:41.577 : en:01:40:41.577
Скриншоты
Скачать

Скачать торрент!

Как скачивать? · Что такое торрент? · Рейтинг и ограничения

Сайт не распространяет и не хранит электронные версии произведений, а лишь предоставляет доступ к создаваемому пользователями каталогу ссылок на торрент-файлы, которые содержат только списки хеш-сумм

[Профиль] [ЛС]
Показать сообщения:    
Ответить на тему

Текущее время: Сегодня 10:02

Часовой пояс: GMT + 4



Вы не можете начинать темы
Вы не можете отвечать на сообщения
Вы не можете редактировать свои сообщения
Вы не можете удалять свои сообщения
Вы не можете голосовать в опросах
Вы не можете прикреплять файлы к сообщениям
Вы не можете скачивать файлы