Диалоги (Ирина Волкова) [2013, драма, WEBRip]

Ответить на тему
 
Автор Сообщение

user ®

Стаж: 7 лет 7 месяцев

Сообщений: 20008

Пост Пост: #1 от 02-Сен-2014 19:00

[Цитировать]

Диалоги
Жанр: драма
Год выпуска: 2013
Продолжительность: 01:32:29
Режиссёр: Ирина Волкова
В ролях: Евгений Стычкин, Ольга Аксёнова, Владимир Меньшов, Алексей Юдников, Агния Кузнецова, Роман Артемьев, Алексей Маслодудов, Сергей Овчинников, Ольга Сутулова, Евгений Цыганов
Описание: Пять попыток сказать самое важное, через немоту и страх быть непонятым. Пять шагов к себе, сквозь отражение в самых близких людях. Пять вдохов, чтобы идти дальше, преодолевая пустоту и страх смерти, в поисках и обретении любви. Разные герои проходят этот путь с одним лишь желанием быть услышанными и принятыми такими, какие они есть. Но возможно ли это?
Сэмпл: http://multi-up.com/996284
Качество видео: WEBRip
Формат видео: AVI
Видео: 720x400 (4:2:0), 25.000 fps, XviD 1.2.1 ~1978 kbps avg, 0.275 bit/pixel
Аудио: 48.0 kHz, MP3, 2 ch, ~128 Кбит/с

MediaInfo
General
Complete name : F:\Download\Dialogi..avi
Format : AVI
Format/Info : Audio Video Interleave
File size : 1.37 GiB
Duration : 1h 32mn
Overall bit rate : 2 116 Kbps
Writing application : VirtualDubMod 1.5.10.3 | www.virtualdub-fr.org || (build 2550/release)
Writing library : VirtualDubMod build 2550/release
Video
ID : 0
Format : MPEG-4 Visual
Format profile : Advanced Simple@L5
Format settings, BVOP : 2
Format settings, QPel : No
Format settings, GMC : No warppoints
Format settings, Matrix : Default (MPEG)
Codec ID : XVID
Codec ID/Hint : XviD
Duration : 1h 32mn
Bit rate : 1 978 Kbps
Width : 720 pixels
Height : 400 pixels
Display aspect ratio : 16:9
Frame rate : 25.000 fps
Color space : YUV
Chroma subsampling : 4:2:0
Bit depth : 8 bits
Scan type : Progressive
Compression mode : Lossy
Bits/(Pixel*Frame) : 0.275
Stream size : 1.28 GiB (93%)
Writing library : XviD 1.2.1 (UTC 2008-12-04)
Audio
ID : 1
Format : MPEG Audio
Format version : Version 1
Format profile : Layer 3
Codec ID : 55
Codec ID/Hint : MP3
Duration : 1h 32mn
Bit rate mode : Constant
Bit rate : 128 Kbps
Channel(s) : 2 channels
Sampling rate : 48.0 KHz
Compression mode : Lossy
Stream size : 84.7 MiB (6%)
Alignment : Aligned on interleaves
Interleave, duration : 40 ms (1.00 video frame)
Interleave, preload duration : 504 ms
Writing library : LAME3.99r
Encoding settings : -m s -V 4 -q 2 -lowpass 17 -b 128
Скриншот c названием фильма Скриншоты
Скачать

Скачать торрент!

Как скачивать? · Что такое торрент? · Рейтинг и ограничения

Сайт не распространяет и не хранит электронные версии произведений, а лишь предоставляет доступ к создаваемому пользователями каталогу ссылок на торрент-файлы, которые содержат только списки хеш-сумм

[Профиль] [ЛС]
Показать сообщения:    
Ответить на тему

Текущее время: Сегодня 03:51

Часовой пояс: GMT + 4



Вы не можете начинать темы
Вы не можете отвечать на сообщения
Вы не можете редактировать свои сообщения
Вы не можете удалять свои сообщения
Вы не можете голосовать в опросах
Вы не можете прикреплять файлы к сообщениям
Вы не можете скачивать файлы