Пуля / Bullet (Ник Лион / Nick Lyon) [2014, Боевик, криминал, BDRip-AVC] MVO (R5) + Original (Eng) + Sub (rus., eng.)

Ответить на тему
 
Автор Сообщение

user ®

Стаж: 7 лет 7 месяцев

Сообщений: 20008

Пост Пост: #1 от 02-Сен-2014 09:15

[Цитировать]

Пуля / Bullet
Страна: США / Giant Ape Media, SC Films International
Жанр: Боевик, криминал
Год выпуска: 2014
Продолжительность: 01:27:16-Перевод: Профессиональный (многоголосый закадровый) [R5]
Cубтитры: русские, английские (SDH + SDH-Colored)
Формат субтитров: softsub (SRT)
Оригинальная аудиодорожка: английский-Режиссер: Ник Лион / Nick Lyon
В ролях: Дэнни Трехо, Торстен Фогс, Джонатан Бэнкс, Кайл Вильяловос, Ив Мауро, Шери ДеЯнг, Эрик Блоссом, Джералд Уэбб, Тинсел Кори, Эрик Этебари
Описание: Пуля — это прозвище бескомпромиссного и жестокого полицейского, для которого борьба с преступностью является смыслом его жизни. В один ужасный день мафия похищает его внука, сама того не понимая какие неприятности на себя навлекая. Пуля берет закон в свои руки и начинает вершить правосудие без суда и следствия.-
Релиз от:
Автор рипа: potroks-Качество видео: BDRip-AVC
Формат видео: MKV
Видео: х.264, 1040x444 (2,35:1), 23,976 fps, 1499 Кbps, 0.135 bit/pixel
Аудио#1: 48 kHz, AC3 Dolby Digital, 3/2 (L,C,R,l,r) + LFE ch, 448.00 kbps | RUS
Аудио#2: 48 kHz, AC3 Dolby Digital, 3/2 (L,C,R,l,r) + LFE ch, 448.00 kbps | ENG

MediaInfo
Общее
Уникальный идентификатор : 245522637406324652336671798480093646062 (0xB8B5F09FF216882986E6AED42D610CEE)
Полное имя : Pulia.2014.DUAL.BDRip.x264.-HELLYWOOD.mkv
Формат : Matroska
Версия формата : Version 4 / Version 2
Размер файла : 1,46 Гбайт
Продолжительность : 1 ч. 27 м.
Общий поток : 2396 Кбит/сек
Название фильма : Bullet (2014) - HELLYWOOD
Дата кодирования : UTC 2014-08-31 15:03:42
Программа кодирования : mkvmerge v5.9.0 ('On The Loose') built on Dec 15 2012 16:39:58
Библиотека кодирования : libebml v1.3.0 + libmatroska v1.4.0
Видео
Идентификатор : 1
Формат : AVC
Формат/Информация : Advanced Video Codec
Профиль формата : High@L4.1
Параметр CABAC формата : Да
Параметр ReFrames формата : 10 кадров
Идентификатор кодека : V_MPEG4/ISO/AVC
Продолжительность : 1 ч. 27 м.
Битрейт : 1499 Кбит/сек
Ширина : 1040 пикселей
Высота : 444 пикселя
Соотношение сторон : 2,35:1
Режим частоты кадров : Постоянный
Частота кадров : 23,976 кадра/сек
Цветовое пространство : YUV
Субдискретизация насыщенности : 4:2:0
Битовая глубина : 8 бит
Тип развёртки : Прогрессивная
Бит/(Пиксели*Кадры) : 0.135
Размер потока : 907 Мбайт (61%)
Заголовок : potroks
Библиотека кодирования : x264 core 130 r2273 b3065e6
Настройки программы : cabac=1 / ref=10 / deblock=1:-2:-2 / analyse=0x3:0x133 / me=umh / subme=11 / psy=1 / psy_rd=1.04:0.00 / mixed_ref=1 / me_range=32 / chroma_me=1 / trellis=2 / 8x8dct=1 / cqm=0 / deadzone=21,11 / fast_pskip=0 / chroma_qp_offset=-2 / threads=6 / lookahead_threads=1 / sliced_threads=0 / nr=0 / decimate=0 / interlaced=0 / bluray_compat=0 / constrained_intra=0 / bframes=11 / b_pyramid=2 / b_adapt=2 / b_bias=0 / direct=3 / weightb=1 / open_gop=0 / weightp=2 / keyint=250 / keyint_min=23 / scenecut=40 / intra_refresh=0 / rc_lookahead=60 / rc=2pass / mbtree=0 / bitrate=1499 / ratetol=1.0 / qcomp=0.70 / qpmin=0 / qpmax=69 / qpstep=4 / cplxblur=20.0 / qblur=0.5 / vbv_maxrate=20000 / vbv_bufsize=20000 / nal_hrd=none / ip_ratio=1.35 / pb_ratio=1.25 / aq=1:0.80
Язык : English
Default : Да
Forced : Нет
Аудио #1
Идентификатор : 2
Формат : AC-3
Формат/Информация : Audio Coding 3
Расширение режима : CM (complete main)
Параметр Endianness формата : Big
Идентификатор кодека : A_AC3
Продолжительность : 1 ч. 27 м.
Вид битрейта : Постоянный
Битрейт : 448 Кбит/сек
Каналы : 6 каналов
Расположение каналов : Front: L C R, Side: L R, LFE
Частота : 48,0 КГц
Битовая глубина : 16 бит
Метод сжатия : С потерями
Размер потока : 280 Мбайт (19%)
Заголовок : MVO | DD 5.1 @ 448 kbps - R5
Язык : Russian
Default : Да
Forced : Да
Аудио #2
Идентификатор : 3
Формат : AC-3
Формат/Информация : Audio Coding 3
Расширение режима : CM (complete main)
Параметр Endianness формата : Big
Идентификатор кодека : A_AC3
Продолжительность : 1 ч. 27 м.
Вид битрейта : Постоянный
Битрейт : 448 Кбит/сек
Каналы : 6 каналов
Расположение каналов : Front: L C R, Side: L R, LFE
Частота : 48,0 КГц
Битовая глубина : 16 бит
Метод сжатия : С потерями
Размер потока : 280 Мбайт (19%)
Заголовок : Original | DD 5.1 @ 448 kbps
Язык : English
Default : Нет
Forced : Нет
Текст #1
Идентификатор : 4
Формат : UTF-8
Идентификатор кодека : S_TEXT/UTF8
Идентификатор кодека/Информация : UTF-8 Plain Text
Язык : Russian
Default : Нет
Forced : Нет
Текст #2
Идентификатор : 5
Формат : UTF-8
Идентификатор кодека : S_TEXT/UTF8
Идентификатор кодека/Информация : UTF-8 Plain Text
Заголовок : SDH
Язык : English
Default : Нет
Forced : Нет
Текст #3
Идентификатор : 6
Формат : UTF-8
Идентификатор кодека : S_TEXT/UTF8
Идентификатор кодека/Информация : UTF-8 Plain Text
Заголовок : SDH-Colored
Язык : English
Default : Нет
Forced : Нет
Меню
00:00:00.000 : en:(01)00:00:00:000
00:06:15.625 : en:(02)00:06:15:625
00:11:31.524 : en:(03)00:11:31:524
00:14:13.602 : en:(04)00:14:13:602
00:17:44.646 : en:(05)00:17:44:646
00:22:35.520 : en:(06)00:22:35:520
00:27:37.656 : en:(07)00:27:37:656
00:32:33.117 : en:(08)00:32:33:117
00:38:37.148 : en:(09)00:38:37:148
00:45:01.657 : en:(10)00:45:01:657
00:50:12.092 : en:(11)00:50:12:092
00:53:54.522 : en:(12)00:53:54:522
00:58:18.453 : en:(13)00:58:18:453
01:02:21.738 : en:(14)01:02:21:738
01:06:54.135 : en:(15)01:06:54:135
01:11:02.258 : en:(16)01:11:02:258
01:15:43.664 : en:(17)01:15:43:664
01:21:14.035 : en:(18)01:21:14:035
01:27:16.356 : en:(19)01:27:16:356
Скриншоты
Скачать

Скачать торрент!

Как скачивать? · Что такое торрент? · Рейтинг и ограничения

Сайт не распространяет и не хранит электронные версии произведений, а лишь предоставляет доступ к создаваемому пользователями каталогу ссылок на торрент-файлы, которые содержат только списки хеш-сумм

[Профиль] [ЛС]
Показать сообщения:    
Ответить на тему

Текущее время: Сегодня 14:36

Часовой пояс: GMT + 4



Вы не можете начинать темы
Вы не можете отвечать на сообщения
Вы не можете редактировать свои сообщения
Вы не можете удалять свои сообщения
Вы не можете голосовать в опросах
Вы не можете прикреплять файлы к сообщениям
Вы не можете скачивать файлы