Секретные материалы Мстителей: Черная Вдова и Каратель / Avengers Confidential: Black Widow & Punisher (Кенити Симидзу / Kenichi Shimizu) [2014 г., Фантастика, Боевик, Приключения, HDRip] MVO (Лицензия)

Ответить на тему
 
Автор Сообщение

user ®

Стаж: 11 лет

Сообщений: 15145

Пост Пост: #1 от 01-Сен-2014 01:40

[Цитировать]

-Секретные материалы Мстителей: Черная Вдова и Каратель / Avengers Confidential: Black Widow & Punisher- -Страна: США
Жанр: фантастика, боевик, приключения
Продолжительность: 01:22:42
Год выпуска: 2014
Перевод: Профессиональный (многоголосый закадровый)
-Режиссёр: Кенити Симидзу / Kenichi Shimizu
Описание: После вмешательства в сверхсекретные миссии ЩИТа Каратель попадает под контроль Черной вдовы. По приказу Ника Фьюри они отправляются на миссию по борьбе с глобальной террористической организацией Левиафан, которая планирует продать украденные у ЩИТа технологии любому, кто больше заплатит. Теперь убийца и шпионка должны работать вместе, чтобы предотвратить попадание информации не в те руки. На чашу весов положена судьба мира и Мстителей.
-
Сэмпл: http://multi-up.com/995967-Качество: HDRip
Формат: AVI
Видео: MPEG4, XviD, 720x400 (16:9), 23.976 fps, 1 973 Kbps (0.286 bit/pixel)
Аудио: AC-3, 48.0 KHz, 6 ch, 384 Kbps, CBR (Russian, MVO iTunes)
-» Подробные технические данные
GeneralComplete name : E:\Avengers.Confidential.Black.Widow.&.Punisher.2014.HDRip.aviFormat : AVIFormat/Info : Audio Video InterleaveFile size : 1.37 GiBDuration : 1h 22mnOverall bit rate : 2 366 KbpsWriting application : VirtualDubMod 1.5.10.2 (build 2540/release)Writing library : VirtualDubMod build 2540/release
VideoID : 0Format : MPEG-4 VisualFormat profile : Advanced Simple@L5Format settings, BVOP : 2Format settings, QPel : NoFormat settings, GMC : No warppointsFormat settings, Matrix : Default (MPEG)Codec ID : XVIDCodec ID/Hint : XviDDuration : 1h 22mnBit rate : 1 973 KbpsWidth : 720 pixelsHeight : 400 pixelsDisplay aspect ratio : 16:9Frame rate : 23.976 fpsColor space : YUVChroma subsampling : 4:2:0Bit depth : 8 bitsScan type : ProgressiveCompression mode : LossyBits/(Pixel*Frame) : 0.286Stream size : 1.14 GiB (83%)Writing library : XviD 1.2.1 (UTC 2008-12-04)
AudioID : 1Format : AC-3Format/Info : Audio Coding 3Mode extension : CM (complete main)Format settings, Endianness : BigCodec ID : 2000Duration : 1h 22mnBit rate mode : ConstantBit rate : 384 KbpsChannel(s) : 6 channelsChannel positions : Front: L C R, Side: L R, LFESampling rate : 48.0 KHzBit depth : 16 bitsCompression mode : LossyStream size : 227 MiB (16%)Alignment : Split accross interleavesInterleave, duration : 42 ms (1.00 video frame)Interleave, preload duration : 500 ms
» Скриншоты
Скачать

Скачать торрент! Секретные материалы Мстителей: Черная Вдова и Каратель / Avengers Confidential: Black Widow & Punisher (Кенити Симидзу / Kenichi Shimizu) [2014 г., Фантастика, Боевик, Приключения, HDRip] MVO (Лицензия)

Как скачивать? · Что такое торрент? · Рейтинг и ограничения

Сайт не распространяет и не хранит электронные версии произведений, а лишь предоставляет доступ к создаваемому пользователями каталогу ссылок на торрент-файлы, которые содержат только списки хеш-сумм

[Профиль] [ЛС]
Показать сообщения:    
Ответить на тему

Текущее время: Сегодня 19:30

Часовой пояс: GMT + 4



Вы не можете начинать темы
Вы не можете отвечать на сообщения
Вы не можете редактировать свои сообщения
Вы не можете удалять свои сообщения
Вы не можете голосовать в опросах
Вы не можете прикреплять файлы к сообщениям
Вы не можете скачивать файлы