10 000 часов / 10 000 timmar (Йоахим Хеден / Joachim Heden) [2014, Швеция, Комедия, DVDRip] VO (Andi) + Sub Rus, Swe + Original Swe

Ответить на тему
 
Автор Сообщение

user ®

Стаж: 7 лет 7 месяцев

Сообщений: 20008

Пост Пост: #1 от 31-Авг-2014 22:30

[Цитировать]

10 000 часов / 10 000 timmar
Страна: Швеция
Жанр: Комедия
Год выпуска: 2014
Продолжительность: 01:32:45
Перевод: Одноголосый закадровый (Andi)
Cубтитры: русские, шведские
Оригинальная аудиодорожка: шведский (отдельным файлом)
Режиссер: Йоахим Хеден / Joachim Heden
В ролях: Петер Магнуссон, Карин Литман, Озз Нюжен, Матильда фон Эссен
Описание: Эрику Ханссону выпадает невероятная удача — он выигрывает в лотерее 25 тысяч шведских крон, но вместо того, чтобы погасить кредит, как желает жена, он решает посвятить жизнь футболу. Книга «10 000 часов» убеждает его, что, если приложить максимум усилий и потратить 10 тысяч часов, то можно добиться чего угодно. Правда это или нет, Эрику предстоит узнать...
Доп. информация: Шведские критики навешали на фильм кучу ярлыков. От "пропаганда дауншифтинга" до "антифеминистическое кино". И если с первым, в принципе, можно согласиться, то со вторым как-то не получается...
В конечном итоге, это доброе, легкое кино о легкой жизни в благополучной Швеции.
Зрители встретили фильм достаточно тепло.
Рекомендуем!
Сэмпл
Над релизом работали
Перевод: М. Васильев
Текст читал: [url=http://***/forum/profile.php?mode=viewprofile&u=6584813]Andi[/url]
Работа со звуком: [url=http://***/forum/profile.php?mode=viewprofile&u=21463484]Максим Черный[/url]
Рип и постер: [url=http://***/forum/profile.php?mode=viewprofile&u=16773990]Станислав Бельков[/url]
Релиз подготовлен РГ "Translators" и ВК группой "Скандинавский калейдоскоп"


Фото с премьеры фильма
Апрель 2014, Стокгольм



Информация о актерах
Петер Магнуссон (р.1974) — известный шведский актер, сценарист и телеведущий. Несмотря на выдающиеся внешние данные (почетное 4 место в списке самых сексуальных мужчин Швеции), его специализация — не герои-любовники и даже не просто герои, а странные личности и комические дурачки. Собственно, на родине Магнуссон считается выдающимся комиком. В 2009 вышел фильм «Лето «с приветом», которое стало бенефисом Петера. Он сыграл главную роль, написал сценарий и выступил со-продюсером картины. В Швеции фильм стал лидером проката (а на рутрекере лежит с унизительными тремя сотнями закачек).
В данный момент Магнуссом ведет на шведском ТВ сразу две популярные программы: местную версию легендарного «Форта Бойярд» и местную «Фабрику звезд»
В картине «10 000 часов» компанию Петеру составляют две замечательные шведские блондинки.
Катрин Литман (р. 1976) — выпускница Театрально Академии Мальмо и актриса местного театра, Катрин много работает на сцене и снимается в сериалах.
Матильда фон Эссен (р. 1989) — дебютировала в кино в 2011 в фильме «Девушка с татуировкой дракона», закончила Стокгольмский Университет, снимается в сериалах, работает моделью и ведет блог, в котором рассуждает на различные важные общественные темы.
Возможно, многие согласятся, что на самом деле, настоящая звезда этого фильма — Озз Нюжен , сыгравший лучшего друга главного героя. Родившийся в 1975 году в Турции, Озз является этническим курдом, что помогло ему получить политическое убежище в Швеции, где он сделал карьеру комика. Популярный станд-ап артист и телеведущий, снимается в сериалах и даже работает в театре (в драматическом театре Уппсала он играет роль Пака в спектакле «Сон в летнюю ночь»)
[url=http://***/forum/viewtopic.php?t=2403326]Как подключить внешнюю аудиодорожку[/url]
Качество видео: DVDRip
Формат видео: AVI
Видео: 1798 Kbps, 720x304 (2.35:1), 24 000 fps, MPEG 4 XviD
Аудио: 448 Kbps, 48.0 KHz, 16 bits, 6 ch, AC 3 (Russian)
Аудио 2: 448 Kbps, 48.0 KHz, 16 bits, 6 ch, AC 3 (Swedish)
Формат субтитров: softsub (SRT)
MediaInfo
General
Complete name : C:\Users\Владелец\Desktop\timmar\timmar.avi
Format : AVI
Format/Info : Audio Video Interleave
File size : 1.46 GiB
Duration : 1h 32mn
Overall bit rate : 2 256 Kbps
Writing application : VirtualDubMod 1.5.10.2 (build 2540/release)
Writing library : VirtualDubMod build 2540/release
Video
ID : 0
Format : MPEG-4 Visual
Format profile : Advanced Simple@L5
Format settings, BVOP : 3
Format settings, QPel : Yes
Format settings, GMC : No warppoints
Format settings, Matrix : Default (H.263)
Codec ID : XVID
Codec ID/Hint : XviD
Duration : 1h 32mn
Bit rate : 1 798 Kbps
Width : 720 pixels
Height : 304 pixels
Display aspect ratio : 2.35:1
Frame rate : 24.000 fps
Color space : YUV
Chroma subsampling : 4:2:0
Bit depth : 8 bits
Scan type : Progressive
Compression mode : Lossy
Bits/(Pixel*Frame) : 0.342
Stream size : 1.17 GiB (80%)
Writing library : XviD 1.2.1 (UTC 2008-12-04)
Audio
ID : 1
Format : AC-3
Format/Info : Audio Coding 3
Mode extension : CM (complete main)
Format settings, Endianness : Big
Codec ID : 2000
Duration : 1h 32mn
Bit rate mode : Constant
Bit rate : 448 Kbps
Channel(s) : 6 channels
Channel positions : Front: L C R, Side: L R, LFE
Sampling rate : 48.0 KHz
Bit depth : 16 bits
Compression mode : Lossy
Stream size : 297 MiB (20%)
Alignment : Split accross interleaves
Interleave, duration : 42 ms (1.00 video frame)
Interleave, preload duration : 500 ms
Скриншот c названием фильма Скриншоты
Скачать

Скачать торрент!

Как скачивать? · Что такое торрент? · Рейтинг и ограничения

Сайт не распространяет и не хранит электронные версии произведений, а лишь предоставляет доступ к создаваемому пользователями каталогу ссылок на торрент-файлы, которые содержат только списки хеш-сумм

[Профиль] [ЛС]
Показать сообщения:    
Ответить на тему

Текущее время: Сегодня 01:15

Часовой пояс: GMT + 4



Вы не можете начинать темы
Вы не можете отвечать на сообщения
Вы не можете редактировать свои сообщения
Вы не можете удалять свои сообщения
Вы не можете голосовать в опросах
Вы не можете прикреплять файлы к сообщениям
Вы не можете скачивать файлы