Плачу вперед! (Виктор Титов) [1999, комедия, DVB]

Ответить на тему
 
Автор Сообщение

user ®

Стаж: 7 лет 7 месяцев

Сообщений: 20008

Пост Пост: #1 от 31-Авг-2014 19:20

[Цитировать]

Плачу вперед!
Жанр: комедия
Год выпуска: 1999
Продолжительность: 01:38:57
Режиссёр: Виктор Титов
В ролях: Михаил Боярский, Наталья Данилова, Лариса Луппиан, Ксения Раппопорт
Описание: Знаменитый актер, сердцеед и "гений любви" в канун Нового года оказывается в окружении трех очаровательных женщин, с каждой из которых его связывают непростые отношения.
Доп. информация: Запись потока *.ts со спутника ABS-2, 75° в.д., ремукс в *.mpg программой VideoReDo.
Качество видео: DVB
Формат видео: MPEG-PS
Видео: MPEG Video, 720(768)x576 (4:3), 25,000 кадров/сек, 3186 Кбит/сек
Аудио: MPEG Audio, 48,0 КГц, 192 Кбит/сек, 2 канала
Сравнение
[url=http://***/forum/viewtopic.php?t=3886817]http://***/forum/viewtopic.php?t=3886817[/url]
http://screenshotcomparison.com/comparison/89716/
MediaInfo
Общее
Полное имя : D:\Torrent\Плачу вперед (Moskva Doverie).mpg
Формат : MPEG-PS
Размер файла : 2,38 Гбайт
Продолжительность : 1 ч. 38 м.
Режим общего битрейта : Переменный
Общий поток : 3446 Кбит/сек
Видео
Идентификатор : 224 (0xE0)
Формат : MPEG Video
Версия формата : Version 2
Профиль формата : Main@Main
Параметр BVOP формата : Да
Параметр матрицы формата : Выборочная
Параметр GOP формата : M=3, N=12
Продолжительность : 1 ч. 38 м.
Вид битрейта : Переменный
Битрейт : 3186 Кбит/сек
Максимальный битрейт : 15,0 Мбит/сек
Ширина : 720 пикселей
Высота : 576 пикселей
Соотношение сторон : 4:3
Частота кадров : 25,000 кадров/сек
Стандарт вещания : PAL
Цветовое пространство : YUV
Субдискретизация насыщенности : 4:2:0
Битовая глубина : 8 бит
Тип развёртки : Чересстрочная
Порядок развёртки : Верхнее поле первое
Метод сжатия : С потерями
Бит/(Пиксели*Кадры) : 0.307
Временной код первого кадра : 00:00:00:00
Оригинал временного кода : Group of pictures header
Размер потока : 2,20 Гбайт (92%)
Аудио
Идентификатор : 192 (0xC0)
Формат : MPEG Audio
Версия формата : Version 1
Профиль формата : Layer 2
Продолжительность : 1 ч. 38 м.
Вид битрейта : Постоянный
Битрейт : 192 Кбит/сек
Каналы : 2 канала
Частота : 48,0 КГц
Метод сжатия : С потерями
Задержка видео : 12 мс.
Размер потока : 136 Мбайт (6%)
Скриншот c названием фильма Скриншоты
Скачать

Скачать торрент!

Как скачивать? · Что такое торрент? · Рейтинг и ограничения

Сайт не распространяет и не хранит электронные версии произведений, а лишь предоставляет доступ к создаваемому пользователями каталогу ссылок на торрент-файлы, которые содержат только списки хеш-сумм

[Профиль] [ЛС]
Показать сообщения:    
Ответить на тему

Текущее время: Сегодня 14:29

Часовой пояс: GMT + 4



Вы не можете начинать темы
Вы не можете отвечать на сообщения
Вы не можете редактировать свои сообщения
Вы не можете удалять свои сообщения
Вы не можете голосовать в опросах
Вы не можете прикреплять файлы к сообщениям
Вы не можете скачивать файлы