Чувство вины / Gunaah (Амол Шетге / Amol Shetge) [2002, Индия, Драма, криминал, DVDRip] DVO (Арена)

Ответить на тему
 
Автор Сообщение

user ®

Стаж: 12 лет

Сообщений: 15092

Пост Пост: #1 от 31-Авг-2014 10:30

[Цитировать]

Чувство вины / Gunaah
Страна: Индия
Жанр: Драма, криминал
Год выпуска: 2002
Продолжительность: 02:15:18
Перевод: Любительский (двухголосый закадровый) Арена
Cубтитры: нет
Режиссер: Амол Шетге / Amol Shetge
В ролях: Бипаша Басу, Дино Мореа, Ашутош Рана, Банжара, Шарад Чаухан, Баби Газала, Автар Гилл, Ирфан Кхан, Джахангир Кхан, Самукхи Пендсе
Описание: Преступник Адитья спасает жизнь инспектору Прабхе, но сам оказывается в руках полиции. Прабха невольно испытывает чувство вины к человеку, который стал ей небезразличен. Адитье удается бежать из-под стражи, и Прабха считает своим долгом разыскать его. Она осознает, что Адитья — добрый человек, вынужденный встать на преступный путь, но кто скрывается за маской беглеца?
Доп. информация: Исходник [url=http://***/forum/viewtopic.php?t=2776034]DVD-9[/url] (СПАСИБО! z17)
Сэмпл: http://multi-up.com/995780
Качество видео: DVDRip
Формат видео: AVI
Видео: XviD build 50, 688x384 (1.79:1), 25 fps, 1407 kbps avg
Аудио: MPEG Layer 3, 48 kHz, 2/0 (L,R) ch, 128.00 kbps avg
MediaInfo
General
Complete name : D:\Chuvstvo.vini.2002.XviD.DVDRip-Dego.avi
Format : AVI
Format/Info : Audio Video Interleave
File size : 1.46 GiB
Duration : 2h 15mn
Overall bit rate : 1 545 Kbps
Writing application : VirtualDubMod 1.5.10.2 (build 2540/release)
Writing library : VirtualDubMod build 2540/release
Video
ID : 0
Format : MPEG-4 Visual
Format profile : AdvancedSimple@L5
Format settings, BVOP : Yes
Format settings, QPel : No
Format settings, GMC : No warppoints
Format settings, Matrix : Custom
Codec ID : XVID
Codec ID/Hint : XviD
Duration : 2h 15mn
Bit rate : 1 408 Kbps
Width : 688 pixels
Height : 384 pixels
Display aspect ratio : 16/9
Frame rate : 25.000 fps
Resolution : 24 bits
Colorimetry : 4:2:0
Scan type : Progressive
Bits/(Pixel*Frame) : 0.213
Stream size : 1.33 GiB (91%)
Writing library : XviD 1.2.1 (UTC 2008-12-04)
Audio
ID : 1
Format : MPEG Audio
Format version : Version 1
Format profile : Layer 3
Codec ID : 55
Codec ID/Hint : MP3
Duration : 2h 15mn
Bit rate mode : Constant
Bit rate : 128 Kbps
Channel(s) : 2 channels
Sampling rate : 48.0 KHz
Resolution : 16 bits
Stream size : 124 MiB (8%)
Alignment : Aligned on interleaves
Interleave, duration : 40 ms (1.00 video frame)
Interleave, preload duration : 504 ms
Writing library : LAME3.98r
Encoding settings : -m s -V 4 -q 2 -lowpass 17 -b 128
Скриншоты
Скачать

Скачать торрент! Чувство вины / Gunaah (Амол Шетге / Amol Shetge) [2002, Индия, Драма, криминал, DVDRip] DVO (Арена)

Как скачивать? · Что такое торрент? · Рейтинг и ограничения

Сайт не распространяет и не хранит электронные версии произведений, а лишь предоставляет доступ к создаваемому пользователями каталогу ссылок на торрент-файлы, которые содержат только списки хеш-сумм

[Профиль] [ЛС]
Показать сообщения:    
Ответить на тему

Текущее время: Сегодня 11:25

Часовой пояс: GMT + 4



Вы не можете начинать темы
Вы не можете отвечать на сообщения
Вы не можете редактировать свои сообщения
Вы не можете удалять свои сообщения
Вы не можете голосовать в опросах
Вы не можете прикреплять файлы к сообщениям
Вы не можете скачивать файлы