Реклама:Опасные слухи / Advertisement: Dangerous Rumors (Ким Кван Сик / Kwang-shik Kim) [2014, Южная Корея, драма, триллер, HDRip] DVO

Ответить на тему
 
Автор Сообщение

user ®

Стаж: 13 лет

Сообщений: 15071

Пост Пост: #1 от 31-Авг-2014 04:10

[Цитировать]

Реклама:Опасные слухи / Advertisement: Dangerous Rumors
Страна: Южная Корея
Жанр: драма, триллер
Год выпуска: 2014
Продолжительность: 02:02:24-Перевод: Любительский (двухголосный закадровый) Ольга Гринтиева и Франк Цветков
Cубтитры: нет
Оригинальная аудиодорожка: нет-Режиссер: Ким Кван Сик / Kwang-shik Kim-В ролях: Ким Кан У, Чон Джин Ён, Ко Чан Сок, Пак Сон Ун, Ан Сон Ги, Ли Чхэ Ын-Описание: Замешанная в сексуальном скандале с женатым политиком юная актриса, заканчивает жизнь самоубийством. Её менеджер, полностью доверяющий ей, решает узнать, откуда появляются, слухи… Постепенно картина начинает прорисовываться. Он раскручивает клубок тайного мира информации, узнав, насколько полезной может быть ложная информация и как она используется в информационных войнах.-Сэмпл: http://multi-up.com/995561-Качество видео: HDRip
Формат видео: AVI
Видео: xvid, 720х304, 2,35:1, 23,976 кадра/сек, 1373 Кбит/сек
Аудио: AC-3, 48,0 КГц, 192 Кбит/сек, 2 канала Front: L R
MediaInfo
Формат : AVI
Формат/Информация : Audio Video Interleave
Профиль формата : OpenDML
Размер файла : 1,35 Гбайт
Продолжительность : 2 ч. 2 м.
Общий поток : 1577 Кбит/сек
Программа кодирования : Lavf54.63.104
Видео
Идентификатор : 0
Формат : xvid
Идентификатор кодека : xvid
Продолжительность : 2 ч. 2 м.
Битрейт : 1373 Кбит/сек
Ширина : 720 пикселей
Высота : 304 пикселя
Соотношение сторон : 2,35:1
Частота кадров : 23,976 кадра/сек
Бит/(Пиксели*Кадры) : 0.262
Размер потока : 1,17 Гбайт (87%)
Аудио
Идентификатор : 1
Формат : AC-3
Формат/Информация : Audio Coding 3
Расширение режима : CM (complete main)
Параметр Endianness формата : Big
Идентификатор кодека : 2000
Продолжительность : 2 ч. 2 м.
Вид битрейта : Постоянный
Битрейт : 192 Кбит/сек
Каналы : 2 канала
Расположение каналов : Front: L R
Частота : 48,0 КГц
Битовая глубина : 16 бит
Метод сжатия : С потерями
Размер потока : 168 Мбайт (12%)
Выравнивание : Соединение по промежуткам
Продолжительность промежутка : 32 мс. (0,77 видеокадр)
Скриншот c названием фильма Скриншоты
Скачать

Скачать торрент! Реклама:Опасные слухи / Advertisement: Dangerous Rumors (Ким Кван Сик / Kwang-shik Kim) [2014, Южная Корея, драма, триллер, HDRip] DVO

Как скачивать? · Что такое торрент? · Рейтинг и ограничения

Сайт не распространяет и не хранит электронные версии произведений, а лишь предоставляет доступ к создаваемому пользователями каталогу ссылок на торрент-файлы, которые содержат только списки хеш-сумм

[Профиль] [ЛС]
Показать сообщения:    
Ответить на тему

Текущее время: Сегодня 11:58

Часовой пояс: GMT + 4



Вы не можете начинать темы
Вы не можете отвечать на сообщения
Вы не можете редактировать свои сообщения
Вы не можете удалять свои сообщения
Вы не можете голосовать в опросах
Вы не можете прикреплять файлы к сообщениям
Вы не можете скачивать файлы