Когда гаснет свет / Jiu huo ying xiong (Чи-Кин Квок / Chi-kin Kwok) [2014, Китай, Гонконг, боевик, драма, HDRip] VO [В. Белов]

Ответить на тему
 
Автор Сообщение

user ®

Стаж: 13 лет

Сообщений: 15071

Пост Пост: #1 от 31-Авг-2014 04:10

[Цитировать]

Когда гаснет свет / Jiu huo ying xiong- -Страна: Китай, Гонконг
Жанр: боевик, драма
Год выпуска: 2014
Продолжительность: 01:54:41-Перевод: Одноголосый закадровый [В. Белов]-Cубтитры: нет
Оригинальная аудиодорожка: нет
Режиссер: Чи-Кин Квок / Chi-kin Kwok
В ролях: Николас Тсе, Шон Юе, Саймон Ям, Цзюнь Ху, Бин Бай, Джеки Чан, Кенни Кван, Вэй Кеунг Лау, Лью Кай Чи, Энди Он...
Описание: Сегодня рождество. Все жители Гонконга готовятся в этому чудесному празднику. Пожарные прославленного гарнизона также надеялись спокойно провести этот праздничный день, но все усугубилось - поступает очередное сообщение о небольшом пожаре на алкогольном помещении. С одной стороны это не трудная задача, но рядом со складом находится электростанция, при неудачном истечении, весь город может оказаться баз света. Для шефа пожарной группы это ответственный день, так как он скоро выходит на пенсию. Он должен очень ответственно отнестись к новой задаче.
Доп. информация: За чистый голос спасибо [url=http://***/forum/profile.php?mode=viewprofile&u=28774446]Wade White[/url]
За сборку дороги спасибо [url=http://***/forum/profile.php?mode=viewprofile&u=22488948]G00ba[/url]
Релиз от -
Сэмпл: http://multi-up.com/995684
Качество видео: HDRip
Формат видео: AVI
Видео: MPEG-4 Visual at 1356 Кбит/сек; 720 x 304 (2.368) at 24.000 fps
Аудио: AC-3 at 448 Кбит/сек; 6 каналов, 48,0 КГц
Автор -
P.S. - наконец то добрались до 1000-ной отметки..
MediaInfo
Общее
Полное имя : D:\Фильмы\Азиатские\Когда гаснет свет\As the Light Goes Out.2014.HDRip.XviD.1400MB. rip by [Assassin's Creed].avi
Формат : AVI
Формат/Информация : Audio Video Interleave
Размер файла : 1,46 Гбайт
Продолжительность : 1 ч. 55 м.
Общий поток : 1814 Кбит/сек
Программа кодирования : VirtualDubMod 1.5.10.2 (build 2540/release)
Библиотека кодирования : VirtualDubMod build 2540/release
Видео
Идентификатор : 0
Формат : MPEG-4 Visual
Профиль формата : Advanced Simple@L5
Параметр BVOP формата : 1
Параметр QPel формата : Нет
Параметр GMC формата : Без точки перехода
Параметр матрицы формата : Default (MPEG)
Идентификатор кодека : XVID
Идентификатор кодека/Подсказка : XviD
Продолжительность : 1 ч. 55 м.
Битрейт : 1356 Кбит/сек
Ширина : 720 пикселей
Высота : 304 пикселя
Соотношение сторон : 2,35:1
Частота кадров : 24,000 кадра/сек
Цветовое пространство : YUV
Субдискретизация насыщенности : 4:2:0
Битовая глубина : 8 бит
Тип развёртки : Прогрессивная
Метод сжатия : С потерями
Бит/(Пиксели*Кадры) : 0.258
Размер потока : 1,09 Гбайт (75%)
Библиотека кодирования : XviD 1.2.1 (UTC 2008-12-04)
Аудио
Идентификатор : 1
Формат : AC-3
Формат/Информация : Audio Coding 3
Расширение режима : CM (complete main)
Параметр Endianness формата : Big
Идентификатор кодека : 2000
Продолжительность : 1 ч. 55 м.
Вид битрейта : Постоянный
Битрейт : 448 Кбит/сек
Каналы : 6 каналов
Расположение каналов : Front: L C R, Side: L R, LFE
Частота : 48,0 КГц
Битовая глубина : 16 бит
Метод сжатия : С потерями
Размер потока : 370 Мбайт (25%)
Выравнивание : Разделение по промежуткам
Продолжительность промежутка : 42 мс. (1,00 видеокадр)
Время предзагрузки промежутка : 500 мс.
Скриншот c названием фильма Скриншоты
Скачать

Скачать торрент! Когда гаснет свет / Jiu huo ying xiong (Чи-Кин Квок / Chi-kin Kwok) [2014, Китай, Гонконг, боевик, драма, HDRip] VO [В. Белов]

Как скачивать? · Что такое торрент? · Рейтинг и ограничения

Сайт не распространяет и не хранит электронные версии произведений, а лишь предоставляет доступ к создаваемому пользователями каталогу ссылок на торрент-файлы, которые содержат только списки хеш-сумм

[Профиль] [ЛС]
Показать сообщения:    
Ответить на тему

Текущее время: Сегодня 17:26

Часовой пояс: GMT + 4



Вы не можете начинать темы
Вы не можете отвечать на сообщения
Вы не можете редактировать свои сообщения
Вы не можете удалять свои сообщения
Вы не можете голосовать в опросах
Вы не можете прикреплять файлы к сообщениям
Вы не можете скачивать файлы