Площадка для игр дьявола / Прибежище Дьявола / The Devil\'s Playground (Фред Скеписи / Fred Schepisi) [1976, Австралия, драма, BDRip 720p] VO + Sub Rus + Original Eng

Ответить на тему
 
Автор Сообщение

user ®

Стаж: 7 лет 7 месяцев

Сообщений: 20008

Пост Пост: #1 от 31-Авг-2014 04:10

[Цитировать]

Площадка для игр дьявола / Прибежище Дьявола / The Devil's Playground
Страна: Австралия
Студия: The Australian Film Commission, The Film House
Жанр: драма
Год выпуска: 1976
Продолжительность: 01:39:02
Перевод: Одноголосый закадровый
Cубтитры: русские (Тарас Котов)
Оригинальная аудиодорожка: английский
Режиссер: Фред Скеписи / Fred Schepisi
В ролях: Артур Дигнам, Ник Тейт, Саймон Бурк, Чарльз МакКаллум, Джон Фроули, Джонатан Харди, Джерри Дагган, Питер Кокс, Джон Дидрих, Томас Кенэлли, Шейла Флоранс, Алан Чинис, Ричард Морган, Роуэн Карри, Гэри Пикстон, Майкл Дэвид, Уоррен Коулман, Марк Гау, Эндрю Курт, Бретт Мёрфи, Уэйн Комли
Описание: Ученики католической семинарии вступили в рискованный период полового созревания, когда вскипевшие гормоны ударяют в голову, искушая соблазнами и подвергая сомнению правильность избранного ими пути. Одни ударяются в религиозный фанатизм, другие — пытаются во всём разобраться. Таким ищущим семинаристом оказывается Том Аллен, пытающийся свежим взглядом критически оценить рациональность церковных правил.

Sample
Тип релиза: BDRip 720p - CtrlHD
Контейнер: MKV
Видео: MPEG4 AVC Video, H264, 16:9, 1280x720, 23,976 fps, 7224 Kbps
Аудио: Russian (AC3, 2 ch, 192 kbps, 16 bits, 48.0 KHz) - VO
Аудио 2: English (FLAC, 2 ch, 544 kbps, 16 bits, 48.0 KHz) - оригинал
Аудио 3: English (AC3, 2 ch, 224 kbps, 16 bits, 48.0 KHz) - комментарии
Формат субтитров: softsub (SRT)

MediaInfo
General
Unique ID : 251503164950111549842506597588098388525 (0xBD35BF65E55A6E8A96005C823DB4922D)
Complete name : E:\1\The.Devil's.Playground.1976.720p.BluRay.x264-CtrlHD\The Devil's Playground 1976 BDRip 720p-CtrlHD.mkv
Format : Matroska
Format version : Version 4 / Version 2
File size : 5.77 GiB
Duration : 1h 39mn
Overall bit rate mode : Variable
Overall bit rate : 8 346 Kbps
Encoded date : UTC 2014-08-28 17:13:48
Writing application : mkvmerge v6.1.0 ('Old Devil') built on Mar 2 2013 14:32:37
Writing library : libebml v1.3.0 + libmatroska v1.4.0
Video
ID : 1
Format : AVC
Format/Info : Advanced Video Codec
Format profile : High@L4.1
Format settings, CABAC : Yes
Format settings, ReFrames : 9 frames
Codec ID : V_MPEG4/ISO/AVC
Duration : 1h 39mn
Width : 1 280 pixels
Height : 720 pixels
Display aspect ratio : 16:9
Frame rate mode : Constant
Frame rate : 23.976 fps
Color space : YUV
Chroma subsampling : 4:2:0
Bit depth : 8 bits
Scan type : Progressive
Writing library : x264 core 142 r2453kMod ea0ca51
Encoding settings : cabac=1 / ref=9 / deblock=1:-3:-3 / analyse=0x3:0x133 / me=umh / subme=10 / psy=1 / fade_compensate=0.00 / psy_rd=1.10:0.00 / mixed_ref=1 / me_range=16 / chroma_me=1 / trellis=2 / 8x8dct=1 / cqm=0 / deadzone=21,11 / fast_pskip=0 / chroma_qp_offset=-2 / threads=6 / lookahead_threads=1 / sliced_threads=0 / nr=0 / decimate=0 / interlaced=0 / bluray_compat=0 / constrained_intra=0 / fgo=0 / bframes=7 / b_pyramid=2 / b_adapt=2 / b_bias=0 / direct=3 / weightb=1 / open_gop=0 / weightp=2 / keyint=250 / keyint_min=23 / scenecut=40 / intra_refresh=0 / rc_lookahead=60 / rc=crf / mbtree=0 / crf=17.0000 / qcomp=0.70 / qpmin=0 / qpmax=69 / qpstep=4 / vbv_maxrate=50000 / vbv_bufsize=62500 / crf_max=0.0 / nal_hrd=none / filler=0 / ip_ratio=1.20 / pb_ratio=1.10 / aq=1:0.60
Language : English
Default : Yes
Forced : No
Audio #1
ID : 2
Format : AC-3
Format/Info : Audio Coding 3
Mode extension : CM (complete main)
Format settings, Endianness : Big
Codec ID : A_AC3
Duration : 1h 39mn
Bit rate mode : Constant
Bit rate : 192 Kbps
Channel count : 2 channels
Channel positions : Front: L R
Sampling rate : 48.0 KHz
Bit depth : 16 bits
Compression mode : Lossy
Stream size : 136 MiB (2%)
Language : Russian
Default : Yes
Forced : No
Audio #2
ID : 3
Format : FLAC
Format/Info : Free Lossless Audio Codec
Codec ID : A_FLAC
Duration : 1h 39mn
Bit rate mode : Variable
Channel count : 2 channels
Sampling rate : 48.0 KHz
Bit depth : 16 bits
Writing library : libFLAC 20080709 (UTC 2008-07-09)
Language : English
Default : No
Forced : No
Audio #3
ID : 4
Format : AC-3
Format/Info : Audio Coding 3
Mode extension : CM (complete main)
Format settings, Endianness : Big
Codec ID : A_AC3
Duration : 1h 39mn
Bit rate mode : Constant
Bit rate : 224 Kbps
Channel count : 2 channels
Channel positions : Front: L R
Sampling rate : 48.0 KHz
Bit depth : 16 bits
Compression mode : Lossy
Stream size : 159 MiB (3%)
Title : Commentary with Fred Schepisi
Language : English
Default : No
Forced : No
Text
ID : 5
Format : UTF-8
Codec ID : S_TEXT/UTF8
Codec ID/Info : UTF-8 Plain Text
Language : Russian
Default : No
Forced : No
Menu
00:00:00.000 : en:00:00:00.000
00:05:17.192 : en:00:05:17.192
00:11:44.829 : en:00:11:44.829
00:22:21.840 : en:00:22:21.840
00:29:21.385 : en:00:29:21.385
00:40:36.267 : en:00:40:36.267
00:54:55.459 : en:00:54:55.459
01:05:02.649 : en:01:05:02.649
01:07:23.748 : en:01:07:23.748
01:16:49.021 : en:01:16:49.021
01:21:26.340 : en:01:21:26.340
01:29:42.711 : en:01:29:42.711
01:37:06.529 : en:01:37:06.529
01:39:00.184 : en:01:39:00.184
Скриншоты
Скачать

Скачать торрент!

Как скачивать? · Что такое торрент? · Рейтинг и ограничения

Сайт не распространяет и не хранит электронные версии произведений, а лишь предоставляет доступ к создаваемому пользователями каталогу ссылок на торрент-файлы, которые содержат только списки хеш-сумм

[Профиль] [ЛС]
Показать сообщения:    
Ответить на тему

Текущее время: Сегодня 03:13

Часовой пояс: GMT + 4



Вы не можете начинать темы
Вы не можете отвечать на сообщения
Вы не можете редактировать свои сообщения
Вы не можете удалять свои сообщения
Вы не можете голосовать в опросах
Вы не можете прикреплять файлы к сообщениям
Вы не можете скачивать файлы