Новый Человек-паук: Высокое напряжение / The Amazing Spider-Man 2: Rise of Electro (Марк Уэбб / Marc Webb) [2014, США, Фэнтези, боевик, приключения, BDRip 720p] Dub + Sub Rus, Eng + Original Eng

Ответить на тему
 
Автор Сообщение

user ®

Стаж: 7 лет 7 месяцев

Сообщений: 20008

Пост Пост: #1 от 31-Авг-2014 04:10

[Цитировать]

Новый Человек-паук: Высокое напряжение / The Amazing Spider-Man 2: Rise of Electro Страна: США
Студия: Marvel Enterprises, Avi Arad Productions, Columbia
Жанр: Фэнтези, боевик, приключения
Год выпуска: 2014
Продолжительность: 02:21:35
Перевод: Профессиональный (дублированный) Blu-ray CEE
Cубтитры: русские(forced,full,commentary),английские(Full, SDH, SDH Colored,Commentary)
Оригинальная аудиодорожка: английский
Режиссер: Марк Уэбб / Marc Webb
В ролях: Эндрю Гарфилд, Эмма Стоун, Джейми Фокс, Дэйн ДеХаан, Колм Фиор, Фелисити Джонс, Пол Джаматти, Салли Филд, Эмбет Дэвидц, Кэмпбелл Скотт
Описание: Питер Паркер под маской Человека-паука по-прежнему спасает мир от злодеев и преступников, а свободное время проводит со своей возлюбленной Гвен, но школьная пора близится к концу, и впереди героев ждет взрослая жизнь. Питер помнит о том, что дал отцу Гвен слово навсегда уйти из жизни девушки, тем самым больше не подвергая ее опасности. Однако сдержать это обещание не так просто. Судьба готовит Питеру сюрпризы: на его пути появится новый противник — Электро, а также ему будет суждено вновь встретиться с давним приятелем Гарри Озборном и узнать много нового о прошлом своей семьи.

Тип релиза: BDRip 720p[DON]
Контейнер: MKV
Видео: AVC, 1280x534, 5765kbps, 23.976 fps
Аудио 1: Russian: 48 kHz, AC3, 3/2 (L,C,R,l,r) + LFE ch, ~640.00 kbps avg |Blu-ray CEE|
Аудио 2: Ukrainian: 48 kHz, AC3, 3/2 (L,C,R,l,r) + LFE ch, ~640.00 kbps avg |Blu-ray CEE|
Аудио 3: English: 48 kHz, AC3, 3/2 (L,C,R,l,r) + LFE ch, ~640.00 kbps |Original|
Аудио 4: English: 48 kHz, AC3, 2/0 (L,R) ch, ~192.00 kbps avg |Commentary with Writers Alex Kurtzman and Jeff Pinkner and Producers Matt Tolmach and Avi Arad|
Чаптеры:есть

x264 log
x264 [info]: frame I:1859 Avg QP:15.49 size:101491
x264 [info]: frame P:45866 Avg QP:17.06 size: 51724
x264 [info]: frame B:155945 Avg QP:18.47 size: 23899
x264 [info]: encoded 203670 frames, 5.199 fps, 5921.69 kb/s
MediaInfo
General
Unique ID : 217986022271565637048748677120188171627 (0xA3FE94ADACBF98CEAA5C710D8C27456B)
Complete name : D:\The.Amazing.Spider-Man.2.2014.720p.BluRay-Talian-.mkv
Format : Matroska
Format version : Version 2
File size : 7.95 GiB
Duration : 2h 21mn
Overall bit rate : 8 037 Kbps
Movie name : -Talian-
Encoded date : UTC 2014-08-29 15:30:18
Writing application : mkvmerge v5.7.0 ('The Whirlwind') built on Jul 8 2012 20:08:51
Writing library : libebml v1.2.3 + libmatroska v1.3.0
Video
ID : 1
Format : AVC
Format/Info : Advanced Video Codec
Format profile : High@L4.1
Format settings, CABAC : Yes
Format settings, ReFrames : 12 frames
Codec ID : V_MPEG4/ISO/AVC
Duration : 2h 21mn
Bit rate : 5 765 Kbps
Width : 1 280 pixels
Height : 534 pixels
Display aspect ratio : 2.40:1
Original display aspect ratio : 2.40:1
Frame rate : 23.976 fps
Color space : YUV
Chroma subsampling : 4:2:0
Bit depth : 8 bits
Scan type : Progressive
Bits/(Pixel*Frame) : 0.352
Stream size : 5.70 GiB (72%)
Title : DON
Writing library : x264 core 142 r2431+42 c69a006 tMod [8-bit@4:2:0 X86_64]
Encoding settings : cabac=1 / ref=12 / deblock=1:-3:-3 / analyse=0x3:0x113 / me=umh / subme=11 / psy=1 / fade_compensate=0.00 / psy_rd=1.00:0.00 / mixed_ref=1 / me_range=32 / chroma_me=1 / trellis=2 / 8x8dct=1 / cqm=0 / deadzone=21,11 / fast_pskip=0 / chroma_qp_offset=-2 / threads=6 / lookahead_threads=1 / sliced_threads=0 / nr=0 / decimate=0 / interlaced=0 / bluray_compat=0 / constrained_intra=0 / fgo=0 / bframes=10 / b_pyramid=2 / b_adapt=2 / b_bias=0 / direct=3 / weightb=1 / open_gop=0 / weightp=2 / keyint=250 / keyint_min=23 / scenecut=40 / intra_refresh=0 / rc_lookahead=60 / rc=crf / mbtree=0 / crf=17.5000 / qcomp=0.65 / qpmin=0:0:0 / qpmax=69:69:69 / qpstep=4 / vbv_maxrate=62500 / vbv_bufsize=78125 / crf_max=0.0 / nal_hrd=none / filler=0 / ip_ratio=1.30 / pb_ratio=1.20 / aq=3:0.90 / aq-sensitivity=10.00 / aq-factor=1.00:1.00:1.00 / aq2=0 / aq3=0
Language : English
Default : Yes
Forced : No
Audio #1
ID : 2
Format : AC-3
Format/Info : Audio Coding 3
Mode extension : CM (complete main)
Format settings, Endianness : Big
Codec ID : A_AC3
Duration : 2h 21mn
Bit rate mode : Constant
Bit rate : 640 Kbps
Channel(s) : 6 channels
Channel positions : Front: L C R, Side: L R, LFE
Sampling rate : 48.0 KHz
Bit depth : 16 bits
Compression mode : Lossy
Stream size : 648 MiB (8%)
Title : DUB- Blu-ray CEE
Language : Russian
Default : Yes
Forced : No
Audio #2
ID : 3
Format : AC-3
Format/Info : Audio Coding 3
Mode extension : CM (complete main)
Format settings, Endianness : Big
Codec ID : A_AC3
Duration : 2h 21mn
Bit rate mode : Constant
Bit rate : 640 Kbps
Channel(s) : 6 channels
Channel positions : Front: L C R, Side: L R, LFE
Sampling rate : 48.0 KHz
Bit depth : 16 bits
Compression mode : Lossy
Stream size : 648 MiB (8%)
Title : DUB- Blu-ray CEE
Language : Ukrainian
Default : No
Forced : No
Audio #3
ID : 4
Format : AC-3
Format/Info : Audio Coding 3
Mode extension : CM (complete main)
Format settings, Endianness : Big
Codec ID : A_AC3
Duration : 2h 21mn
Bit rate mode : Constant
Bit rate : 640 Kbps
Channel(s) : 6 channels
Channel positions : Front: L C R, Side: L R, LFE
Sampling rate : 48.0 KHz
Bit depth : 16 bits
Compression mode : Lossy
Stream size : 648 MiB (8%)
Title : Original
Language : English
Default : No
Forced : No
Audio #4
ID : 5
Format : AC-3
Format/Info : Audio Coding 3
Format profile : Dolby Digital
Mode extension : CM (complete main)
Format settings, Endianness : Big
Codec ID : A_AC3
Duration : 2h 21mn
Bit rate mode : Constant
Bit rate : 192 Kbps
Channel(s) : 2 channels
Channel positions : Front: L R
Sampling rate : 48.0 KHz
Bit depth : 16 bits
Compression mode : Lossy
Stream size : 194 MiB (2%)
Title : Commentary with Writers Alex Kurtzman and Jeff Pinkner and Producers Matt Tolmach and Avi Arad
Language : English
Default : No
Forced : No
Text #1
ID : 6
Format : UTF-8
Codec ID : S_TEXT/UTF8
Codec ID/Info : UTF-8 Plain Text
Title : Sub-forced
Language : Russian
Default : Yes
Forced : No
Text #2
ID : 7
Format : UTF-8
Codec ID : S_TEXT/UTF8
Codec ID/Info : UTF-8 Plain Text
Title : Sub
Language : Russian
Default : No
Forced : No
Text #3
ID : 8
Format : UTF-8
Codec ID : S_TEXT/UTF8
Codec ID/Info : UTF-8 Plain Text
Title : Sub-Commentary
Language : Russian
Default : No
Forced : No
Text #4
ID : 9
Format : UTF-8
Codec ID : S_TEXT/UTF8
Codec ID/Info : UTF-8 Plain Text
Title : Sub-full
Language : English
Default : No
Forced : No
Text #5
ID : 10
Format : UTF-8
Codec ID : S_TEXT/UTF8
Codec ID/Info : UTF-8 Plain Text
Title : Sub-SDH
Language : English
Default : No
Forced : No
Text #6
ID : 11
Format : UTF-8
Codec ID : S_TEXT/UTF8
Codec ID/Info : UTF-8 Plain Text
Title : Sub-SDH-COLORED
Language : English
Default : No
Forced : No
Text #7
ID : 12
Format : UTF-8
Codec ID : S_TEXT/UTF8
Codec ID/Info : UTF-8 Plain Text
Title : Sub-Commentary
Language : English
Default : No
Forced : No
Menu
00:00:00.000 : en:00:00:00.000
00:07:05.342 : en:00:07:05.342
00:14:28.201 : en:00:14:28.201
00:20:13.838 : en:00:20:13.838
00:29:27.099 : en:00:29:27.099
00:39:02.590 : en:00:39:02.590
00:50:56.804 : en:00:50:56.804
00:59:52.756 : en:00:59:52.756
01:08:53.129 : en:01:08:53.129
01:16:19.950 : en:01:16:19.950
01:25:27.706 : en:01:25:27.706
01:35:23.259 : en:01:35:23.259
01:41:30.334 : en:01:41:30.334
01:49:18.343 : en:01:49:18.343
01:57:00.639 : en:01:57:00.639
02:04:44.352 : en:02:04:44.352
Скриншоты
Source vs Encode


Скачать

Скачать торрент!

Как скачивать? · Что такое торрент? · Рейтинг и ограничения

Сайт не распространяет и не хранит электронные версии произведений, а лишь предоставляет доступ к создаваемому пользователями каталогу ссылок на торрент-файлы, которые содержат только списки хеш-сумм

[Профиль] [ЛС]
Показать сообщения:    
Ответить на тему

Текущее время: Сегодня 22:28

Часовой пояс: GMT + 4



Вы не можете начинать темы
Вы не можете отвечать на сообщения
Вы не можете редактировать свои сообщения
Вы не можете удалять свои сообщения
Вы не можете голосовать в опросах
Вы не можете прикреплять файлы к сообщениям
Вы не можете скачивать файлы