Береги меня / Kendime İyi Bak (Рухи Япыджи / Ruhi Yapıcı, Серхан Арслан / Serhan Arslan) [2014, Турция, Драма, мелодрама, HDTVRip] DVO + Original (Tur)

Ответить на тему
 
Автор Сообщение

user ®

Стаж: 7 лет 7 месяцев

Сообщений: 20008

Пост Пост: #1 от 31-Авг-2014 04:10

[Цитировать]

Береги меня / Kendime İyi Bak
Страна: Турция, Pinema, OAK film
Жанр: Драма, мелодрама
Год выпуска: 2014
Продолжительность: 01:26:56

Перевод: Любительский (двухголосый закадровый) Бислан Нагоев, Лидия Максимова
Cубтитры: нет
Оригинальная аудиодорожка: Турецкий
Режиссер: Рухи Япыджи / Ruhi Yapıcı, Серхан Арслан / Serhan Arslan
В ролях: Чагдаш Онур Остюрк, Ослы Тандоган, Бегюм Биргёрен, Филиз Ахмет, Гёкче Озйол, Ферди Куртулду, Замире Зейнеп Касапоглу, Бора Каракул, Селин Алтай, Керем Муслугил, Эрай Тюрк, Нил Озсой, Айча Генч, Уфук Эрдим, Хасан Арслан, Адалет Япыджи, Хакан Йылмаз, Али Ипин
Описание: Эмре и Йешим – влюбленная пара. Они счастливы и решают пожениться. Приготовления к торжеству идут полным ходом, но когда до свадьбы остается всего лишь неделя, Эмре решает пригласить на вечеринку всех своих университетских друзей. Во время встречи он узнает, что его бывшая возлюбленная умерла. Решив узнать, как и почему это случилось, Эмре начинает свое расследование, забыв обо всем, в том числе и о предстоящей свадьбе. И вот, за два дня до свадьбы, Эмре получает все ответы на свои вопросы…
Доп. информация: Автор релиза - shachter58. Перевод: Эльвин Аскеров. Субтитры: Anastassiya. Спасибо за организацию перевода и техническое обеспечение сайту TVnovella.ru

Сэмпл: http://multi-up.com/995481
Качество видео: HDTVRip
Формат видео: AVI
Видео: MPEG-4 Visual, XviD, 720x352, 1 815 Kbps, 25.000 fps, Bits/(Pixel*Frame): 0.287
Аудио: Audio Coding 3, АС-3, 2 ch, 48.0 KHz, 192 Kbps - Русский
Аудио 2: Audio Coding 3, АС-3, 2 ch, 48.0 KHz, 192 Kbps - Турецкий
MediaInfo
General
Complete name : F:\КИНО ТУРЦИИ\Beregi.menya.2014.russ.turk.HDTVRip.by.shachter58.avi
Format : AVI
Format/Info : Audio Video Interleave
File size : 1.34 GiB
Duration : 1h 26mn
Overall bit rate : 2 214 Kbps
Video #0
ID : 0
Format : MPEG-4 Visual
Format profile : Advanced Simple@L5
Format settings, BVOP : 2
Format settings, QPel : No
Format settings, GMC : No warppoints
Format settings, Matrix : Default (H.263)
Codec ID : XVID
Codec ID/Hint : XviD
Duration : 1h 26mn
Bit rate : 1 815 Kbps
Width : 720 pixels
Height : 352 pixels
Display aspect ratio : 2.045
Frame rate : 25.000 fps
Color space : YUV
Chroma subsampling : 4:2:0
Bit depth : 8 bits
Scan type : Progressive
Compression mode : Lossy
Bits/(Pixel*Frame) : 0.287
Stream size : 1.10 GiB (82%)
Writing library : XviD 64
Audio #1
ID : 1
Format : AC-3
Format/Info : Audio Coding 3
Mode extension : CM (complete main)
Format settings, Endianness : Big
Codec ID : 2000
Duration : 1h 26mn
Bit rate mode : Constant
Bit rate : 192 Kbps
Channel(s) : 2 channels
Channel positions : Front: L R
Sampling rate : 48.0 KHz
Bit depth : 16 bits
Compression mode : Lossy
Stream size : 119 MiB (9%)
Alignment : Split accross interleaves
Interleave, duration : 40 ms (1.00 video frame)
Interleave, preload duration : 500 ms
Audio #2
ID : 2
Format : AC-3
Format/Info : Audio Coding 3
Mode extension : CM (complete main)
Format settings, Endianness : Big
Codec ID : 2000
Duration : 1h 26mn
Bit rate mode : Constant
Bit rate : 192 Kbps
Channel(s) : 2 channels
Channel positions : Front: L R
Sampling rate : 48.0 KHz
Bit depth : 16 bits
Compression mode : Lossy
Stream size : 119 MiB (9%)
Alignment : Split accross interleaves
Interleave, duration : 40 ms (1.00 video frame)
Interleave, preload duration : 500 ms
Скриншот c названием фильма Скриншоты
Скачать

Скачать торрент!

Как скачивать? · Что такое торрент? · Рейтинг и ограничения

Сайт не распространяет и не хранит электронные версии произведений, а лишь предоставляет доступ к создаваемому пользователями каталогу ссылок на торрент-файлы, которые содержат только списки хеш-сумм

[Профиль] [ЛС]
Показать сообщения:    
Ответить на тему

Текущее время: Сегодня 17:32

Часовой пояс: GMT + 4



Вы не можете начинать темы
Вы не можете отвечать на сообщения
Вы не можете редактировать свои сообщения
Вы не можете удалять свои сообщения
Вы не можете голосовать в опросах
Вы не можете прикреплять файлы к сообщениям
Вы не можете скачивать файлы