Скорострел / Хочу. Не могу / Premature (Дэн Бирс / Dan Beers) [2014, США, Молодежная комедия, WEB-DLRip] DVO (3А Студия)

Ответить на тему
 
Автор Сообщение

user ®

Стаж: 7 лет 7 месяцев

Сообщений: 20008

Пост Пост: #1 от 31-Авг-2014 04:10

[Цитировать]

Хочу. Не могуPremature«Coming WAY Too Soon»- Страна: США
Жанр: комедия
Год выпуска: 2014
Продолжительность: 01:33:44-Перевод: Любительский (одноголосый) (3А Студия)
Субтитры: нет
Режиссер: Дэн Бирс / Dan Beers
В ролях: Джон Карна, Кэти Финдлей, Крэйг Робертс, Карлсон Янг, Алан Тьюдик-Описание: Для выпускника старших классов наступает самый главный день в его жизни, как в личном плане, так и в учебе. Но все обламывается, так и не дойдя до финала. Просыпаясь на следующее утро, он понимает, что попал в «День Сурка». И теперь ему предстоит раз за разом переживать все события этого самого главного дня, пока все не пройдет идеально. Но удастся ли ему выбраться из временной петли и сделать свои подростковые фантазии реальностью?-
MPAA: R - Лицам до 17 лет обязательно присутствие взрослого-Качество: WEB-DLRip | WEB-DL 720p | sample
Контейнер: AVI
Видео: XviD, 720x304 (2.35:1), 973 kbps, 23,976 fps, 0,186 bpp
Аудио: MP3 / 2.0 / 48 kHz / 128 kbps /-Сравнение
[url=http://***/forum/viewtopic.php?t=4812594]http://***/forum/viewtopic.php?t=4812594[/url]
http://screenshotcomparison.com/comparison/89580
Скриншоты Media Info
General
Complete name : E:\my_rip\Premature.2014.WEBDLRip745.by.Дядя_Лёша.avi
Format : AVI
Format/Info : Audio Video Interleave
File size : 745 MiB
Duration : 1h 33mn
Overall bit rate : 1 111 Kbps
Writing application : VirtualDubMod 1.5.10.3 | www.virtualdub-fr.org || (build 2550/release)
Writing library : VirtualDubMod build 2550/release
Video
ID : 0
Format : MPEG-4 Visual
Format profile : Advanced Simple@L5
Format settings, BVOP : 1
Format settings, QPel : No
Format settings, GMC : No warppoints
Format settings, Matrix : Custom
Codec ID : XVID
Codec ID/Hint : XviD
Duration : 1h 33mn
Bit rate : 974 Kbps
Width : 720 pixels
Height : 304 pixels
Display aspect ratio : 2.35:1
Frame rate : 23.976 fps
Color space : YUV
Chroma subsampling : 4:2:0
Bit depth : 8 bits
Scan type : Progressive
Compression mode : Lossy
Bits/(Pixel*Frame) : 0.186
Stream size : 653 MiB (88%)
Writing library : XviD 73
Audio
ID : 1
Format : MPEG Audio
Format version : Version 1
Format profile : Layer 3
Codec ID : 55
Codec ID/Hint : MP3
Duration : 1h 33mn
Bit rate mode : Constant
Bit rate : 128 Kbps
Channel(s) : 2 channels
Sampling rate : 48.0 KHz
Compression mode : Lossy
Stream size : 85.8 MiB (12%)
Alignment : Aligned on interleaves
Interleave, duration : 42 ms (1.00 video frame)
Interleave, preload duration : 504 ms
Writing library : LAME3.99r
Encoding settings : -m s -V 4 -q 2 -lowpass 17 -b 128
Скачать

Скачать торрент!

Как скачивать? · Что такое торрент? · Рейтинг и ограничения

Сайт не распространяет и не хранит электронные версии произведений, а лишь предоставляет доступ к создаваемому пользователями каталогу ссылок на торрент-файлы, которые содержат только списки хеш-сумм

[Профиль] [ЛС]
Показать сообщения:    
Ответить на тему

Текущее время: Сегодня 20:37

Часовой пояс: GMT + 4



Вы не можете начинать темы
Вы не можете отвечать на сообщения
Вы не можете редактировать свои сообщения
Вы не можете удалять свои сообщения
Вы не можете голосовать в опросах
Вы не можете прикреплять файлы к сообщениям
Вы не можете скачивать файлы