Захар Беркут (Леонид Осыка) [1972, исторический, экранизация, SATRip]

Ответить на тему
 
Автор Сообщение

user ®

Стаж: 7 лет 7 месяцев

Сообщений: 20008

Пост Пост: #1 от 30-Авг-2014 01:00

[Цитировать]

Захар Беркут
Жанр: исторический, экранизация
Год выпуска: 1972
Продолжительность: 01:32:47
Режиссёр: Леонид Осыка
В ролях: Василий Симчич, Иван Гаврилюк, Антонина Лефтий, Константин Степанков, Борислав Брондуков, Болот Бейшеналиев, Иван Миколайчук, Фёдор Панасенко, Владимир Прокофьев, Виталий Розстальный, Борис Савченко, Владимир Шакало, Лев Перфилов, Георгиос Совчис, Валерий Панарин, Владимир Алексеенко, Лилия Гурова, Лев Колесник, Найдан Гендунова, Геннадий Данзанов, Николай Федорцев, Галина Левченко, Александр Липов, Герман КолушкИн, Евгений Хринюк, Георгий Якутович, Николай Яковченко
Описание: По мотивам повести Ивана Франко. Фильм повествует о мужественной борьбе карпатских горцев-русинов под предводительством Захара Беркута, — главой племени охотников, воинов и земледельцев, против татаро-монгольского нашествия на Киевскую Русь в XIII веке. О непобедимом духе народа, стремлении отстоять свою свободу. Сын Захара Беркута Максим спасает жизнь Мирославы - дочери боярина Тугара Вовка. Максим и Мирослава влюбляются друг в друга, однако боярин категорически против их женитьбы. Вскоре община узнаёт, что Тугар Вовк находится в сговоре с татарами. Захар Беркут грозится убить предателя и его семью. Однако Тугар Вовк с дочерью бежит к татарам и приводит их через Карпаты к русичам. Максим попадает в плен. Татары хотят, чтобы он перевел их через Карпаты к русичам...
Доп. информация: Работа со звуком благодарю alex7691.
Сэмпл: http://multi-up.com/995495
Качество видео: SATRip
Формат видео: AVI
Видео: XviD build 73, 704x304 (2.35:1), 25.00 fps, 1430 kbps avg
Аудио: Russian AC3 Dolby Digital, 48 kHz, 2/0 (L,R) ch, 192.00 kbps avg
Аудио: Ukrainian AC3 Dolby Digital, 48 kHz, 2/0 (L,R) ch, 192.00 kbps avg
MediaInfo
Complete name : F:\Zahar.Berkut.1972\Zahar.Berkut_1972.DVDRip.Rus.Ukr.avi
Format : AVI
Format/Info : Audio Video Interleave
File size : 1.19 GiB
Duration : 1h 32mn
Overall bit rate : 1 829 Kbps
Writing application : VirtualDubModRus 1.5.10.2 (build 2542/release)
Writing library : VirtualDubMod build 2542/release
Video
ID : 0
Format : MPEG-4 Visual
Format profile : Advanced Simple@L5
Format settings, BVOP : 2
Format settings, QPel : No
Format settings, GMC : No warppoints
Format settings, Matrix : Default (MPEG)
Codec ID : XVID
Codec ID/Hint : XviD
Duration : 1h 32mn
Bit rate : 1 430 Kbps
Width : 704 pixels
Height : 304 pixels
Display aspect ratio : 2.35:1
Frame rate : 25.000 fps
Color space : YUV
Chroma subsampling : 4:2:0
Bit depth : 8 bits
Scan type : Progressive
Compression mode : Lossy
Bits/(Pixel*Frame) : 0.267
Stream size : 949 MiB (78%)
Writing library : XviD 73
Audio #1
ID : 1
Format : AC-3
Format/Info : Audio Coding 3
Mode extension : CM (complete main)
Format settings, Endianness : Big
Codec ID : 2000
Duration : 1h 32mn
Bit rate mode : Constant
Bit rate : 192 Kbps
Channel count : 2 channels
Channel positions : Front: L R
Sampling rate : 48.0 KHz
Bit depth : 16 bits
Compression mode : Lossy
Stream size : 127 MiB (10%)
Alignment : Split accross interleaves
Interleave, duration : 40 ms (1.00 video frame)
Interleave, preload duration : 500 ms
Audio #2
ID : 2
Format : AC-3
Format/Info : Audio Coding 3
Mode extension : CM (complete main)
Format settings, Endianness : Big
Codec ID : 2000
Duration : 1h 32mn
Bit rate mode : Constant
Bit rate : 192 Kbps
Channel count : 2 channels
Channel positions : Front: L R
Sampling rate : 48.0 KHz
Bit depth : 16 bits
Compression mode : Lossy
Stream size : 127 MiB (10%)
Alignment : Split accross interleaves
Interleave, duration : 40 ms (1.00 video frame)
Interleave, preload duration : 500 ms
Скриншоты
Скачать

Скачать торрент!

Как скачивать? · Что такое торрент? · Рейтинг и ограничения

Сайт не распространяет и не хранит электронные версии произведений, а лишь предоставляет доступ к создаваемому пользователями каталогу ссылок на торрент-файлы, которые содержат только списки хеш-сумм

[Профиль] [ЛС]
Показать сообщения:    
Ответить на тему

Текущее время: Сегодня 05:55

Часовой пояс: GMT + 4



Вы не можете начинать темы
Вы не можете отвечать на сообщения
Вы не можете редактировать свои сообщения
Вы не можете удалять свои сообщения
Вы не можете голосовать в опросах
Вы не можете прикреплять файлы к сообщениям
Вы не можете скачивать файлы