Глаза (Валентин Ховенко) [1992, мелодрама, DVDRip]

Ответить на тему
 
Автор Сообщение

user ®

Стаж: 7 лет 7 месяцев

Сообщений: 20008

Пост Пост: #1 от 29-Авг-2014 18:40

[Цитировать]

Глаза
Жанр: мелодрама
Год выпуска: 1992
Продолжительность: 01:17:49
Режиссёр: Валентин Ховенко
В ролях: Сергей Стеблов, Инга Ильм, Светлана Крючкова, Клара Лучко, Леонид Кулагин, Галина Петрова, Владимир Привалов, Евгений Бубер, Максим Будимиров, Игорь Донченко...
Описание: Хоккейная травма — шайба угодила прямо в глаз — привела симпатичного молодого хоккеиста в медицинский глазной центр. В палате, в которую он попал, существует закон — девчонка, которая находится в такой же палате, на том же месте, но этажом выше, должна быть с ним.
`Послав законодателей` с их законами вначале, наш герой случайно увидел в холле центра свою избранницу, ничего не видящую, но такую красивую и очаровательную, что понял: он увидел свою мечту, любовь, а может и жизнь. Его выписывают, ей предстоит серьезная операция. Нервный шок от невозможности быть рядом с любимой был настолько силен, что мозг приказывает ему быть слепым. Но они хотят видеть!
Она — потому, что любит жизнь, он — потому что любит больше жизни. Они просто должны, обязаны видеть свет и друг друга!
Сэмпл: http://multi-up.com/995433
Качество видео: DVDRip [url=http://***/forum/viewtopic.php?t=476334]Исходник[/url]
Формат видео: AVI
Видео: 672x528 (1.27:1), 25 fps, XviD build 73 ~2392 kbps avg, 0.27 bit/pixel
Аудио: 48 kHz, AC3 Dolby Digital, 2/0 (L,R) ch, ~192 kbps

MediaInfo
General
Complete name : C:\Глаза.avi
Format : AVI
Format/Info : Audio Video Interleave
File size : 1.41 GiB
Duration : 1h 17mn
Overall bit rate : 2 595 Kbps
Writing application : VirtualDubMod 1.5.10.3 (build 2550/release)
Writing library : VirtualDubMod build 2550/release
Video
ID : 0
Format : MPEG-4 Visual
Format profile : Advanced Simple@L5
Format settings, BVOP : 1
Format settings, QPel : No
Format settings, GMC : No warppoints
Format settings, Matrix : Custom
Codec ID : XVID
Codec ID/Hint : XviD
Duration : 1h 17mn
Bit rate : 2 393 Kbps
Width : 672 pixels
Height : 528 pixels
Display aspect ratio : 1.273
Frame rate : 25.000 fps
Color space : YUV
Chroma subsampling : 4:2:0
Bit depth : 8 bits
Scan type : Progressive
Compression mode : Lossy
Bits/(Pixel*Frame) : 0.270
Stream size : 1.30 GiB (92%)
Writing library : XviD 73
Audio
ID : 1
Format : AC-3
Format/Info : Audio Coding 3
Mode extension : CM (complete main)
Format settings, Endianness : Big
Codec ID : 2000
Duration : 1h 17mn
Bit rate mode : Constant
Bit rate : 192 Kbps
Channel(s) : 2 channels
Channel positions : Front: L R
Sampling rate : 48.0 KHz
Bit depth : 16 bits
Compression mode : Lossy
Stream size : 107 MiB (7%)
Alignment : Split accross interleaves
Interleave, duration : 40 ms (1.00 video frame)
Interleave, preload duration : 500 ms
Сравнение
[url=http://***/forum/viewtopic.php?t=457727]http://***/forum/viewtopic.php?t=457727[/url]
http://screenshotcomparison.com/comparison/89516/picture:2
Скриншоты
Скачать

Скачать торрент!

Как скачивать? · Что такое торрент? · Рейтинг и ограничения

Сайт не распространяет и не хранит электронные версии произведений, а лишь предоставляет доступ к создаваемому пользователями каталогу ссылок на торрент-файлы, которые содержат только списки хеш-сумм

[Профиль] [ЛС]
Показать сообщения:    
Ответить на тему

Текущее время: Сегодня 07:49

Часовой пояс: GMT + 4



Вы не можете начинать темы
Вы не можете отвечать на сообщения
Вы не можете редактировать свои сообщения
Вы не можете удалять свои сообщения
Вы не можете голосовать в опросах
Вы не можете прикреплять файлы к сообщениям
Вы не можете скачивать файлы