Смешанные / Blended (Фрэнк Корачи / Frank Coraci) [2014, США, комедия, семейный, BDRip-AVC] Dub + Sub Rus + Original Eng

Ответить на тему
 
Автор Сообщение

user ®

Стаж: 7 лет 7 месяцев

Сообщений: 20008

Пост Пост: #1 от 29-Авг-2014 18:40

[Цитировать]

Смешанные / Blended
Страна: США
Жанр: комедия, семейный
Год выпуска: 2014
Продолжительность: 01:57:13
Перевод: Профессиональный (дублированный) iTunes
Cубтитры: русские (Forced, Full), английские
Оригинальная аудиодорожка: английский
Режиссер: Фрэнк Корачи / Frank Coraci
В ролях: Адам Сэндлер, Дрю Бэрримор, Кевин Нилон, Терри Крюс, Венди МакЛендон-Кови, Эмма Фурманн, Белла Торн, Брэкстон Бэкхам, Аливия Элин Линд, Джоэл МакХэйл
Описание: После катастрофического свидания «вслепую» родители-одиночки Лорен и Джим согласны только в одном: они не хотят больше видеть друг друга никогда! Полагая, что их знакомство окончено, обе семьи пользуются удобным случаем и отправляются в идеальный отпуск с детьми. А оказываются в одних и тех же гостиничных апартаментах на роскошном южноафриканском курорте аж на целую неделю.


Качество видео: BDRip-AVC / Blended.2014.1080p.BluRay.REMUX.AVC.DTS-HD.MA.5.1-RARBG
Формат видео: MKV
Видео: MPEG-4 AVC Video / 2 795 Кбит/сек / 1040x562 / 23.976 / 1.85:1 / High Profile 4.1
Аудио 1: AC3 / Dolby Digital Audio / 5.1 / 48 kHz / 384 kbps |iTunes|
Аудио 2: AC3 / Dolby Digital Audio / 5.1 / 48 kHz / 384 kbps |Original|
Формат субтитров: softsub (SRT)
FAQ по просмотру MKV/h.264/AAC
[url=http://***/forum/viewtopic.php?p=9255801#1]•Смогу ли я запустить AVC фильм на своём компьютере?[/url]
[url=http://***/forum/viewtopic.php?p=9255801#2]•Сампл из раздачи не воспроизводится/тормозит или отсутствует звук/изображение. Что делать?[/url]
[url=http://***/forum/viewtopic.php?p=9255801#3]•Что такое H.264/AVC и зачем он нужен?[/url]
[url=http://***/forum/viewtopic.php?p=9255801#4]•Что за дурацкий формат .MKV?[/url]
[url=http://***/forum/viewtopic.php?p=9255801#5]•Почему MKV? Чем AVI хуже?[/url]
[url=http://***/forum/viewtopic.php?p=9255801#6]•Не могу переключить/включить/выключить аудио/видео дорожки и/или субтитры. Что делать?[/url]
[url=http://***/forum/viewtopic.php?p=9255801#14]•Как сделать так, чтобы по умолчанию при просмотре MKV файлов нужные/ненужные субтитры были включены/выключены, и/или сразу проигрывалась дорожка на нужном мне языке?[/url]
[url=http://***/forum/viewtopic.php?p=9255801#7]•Будут ли фильмы в таком формате проигрываться на бытовых плеерах без компьютера?[/url]
[url=http://***/forum/viewtopic.php?p=9255801#8]•Проигрываю фильм, а картинка очень сильно отличается от скринов/бледная/перенасыщенная. Что не так?[/url]
[url=http://***/forum/viewtopic.php?p=9255801#9]•Можно ли сконвертировать AVC в DVD?[/url]
[url=http://***/forum/viewtopic.php?p=9255801#10]•Почему сплюснута картинка / в характеристиках видео указано два разрешения / что такое анаморфное разрешение?[/url]
[url=http://***/forum/viewtopic.php?p=9255801#169]•Зачем релизёры обманывают качающих и пишут в заголовке 720p/1080p, а на самом деле раздают видеоматериалы в непонятных разрешениях?[/url]
[url=http://***/forum/viewtopic.php?p=9255801#11]•Можно ли вывести многоканальный FLAC/AAC-звук на внешний ресивер?[/url]
[url=http://***/forum/viewtopic.php?p=9255801#12]•У меня 2-канальная акустика/стереонаушники. При просмотре видео почти не слышно/совсем не слышно речь/разговоры, играют только фоновые звуки. Что делать?[/url]
[url=http://***/forum/viewtopic.php?p=9255801#coreweightp]•У меня стоит CoreAVC версии 1.9.5 или младше. При воспроизведении картинка рассыпается на квадраты и разноцветные пятна. Кривой рип?[/url]
[url=http://***/forum/viewtopic.php?p=9255801#13]•Всё прочитал(-а), решения своей проблемы не нашёл(-шла)/не смог(-ла) разобраться. Что делать?[/url]
MediaInfo
General
Unique ID                                : 179887373498959863471406065683301590644 (0x87550C44BD50E5AA9C7007F78E06E674)
Complete name                            : Blended.2014.BDRip-AVC_[***].mkv
Format                                   : Matroska
Format version                           : Version 4 / Version 2
File size                                : 2.92 GiB
Duration                                 : 1h 57mn
Overall bit rate                         : 3 565 Kbps
Movie name                               : Blended.2014
Encoded date                             : UTC 2014-08-29 09:08:02
Writing application                      : mkvmerge v7.1.0 ('Good Love') 64bit built on Jul 27 2014 13:06:55
Writing library                          : libebml v1.3.0 + libmatroska v1.4.1
DURATION                                 : 01:56:41.282000000
NUMBER_OF_FRAMES                         : 2055
NUMBER_OF_BYTES                          : 68299
_STATISTICS_WRITING_APP                  : mkvmerge v7.1.0 ('Good Love') 64bit built on Jul 27 2014 13:06:55
_STATISTICS_WRITING_DATE_UTC             : 2014-08-29 09:08:02
_STATISTICS_TAGS                         : BPS DURATION NUMBER_OF_FRAMES NUMBER_OF_BYTES
Video
ID                                       : 1
Format                                   : AVC
Format/Info                              : Advanced Video Codec
Format profile                           : High@L4.1
Format settings, CABAC                   : Yes
Format settings, ReFrames                : 10 frames
Codec ID                                 : V_MPEG4/ISO/AVC
Duration                                 : 1h 57mn
Bit rate                                 : 2 795 Kbps
Width                                    : 1 040 pixels
Height                                   : 562 pixels
Display aspect ratio                     : 1.85:1
Frame rate mode                          : Constant
Frame rate                               : 23.976 fps
Color space                              : YUV
Chroma subsampling                       : 4:2:0
Bit depth                                : 8 bits
Scan type                                : Progressive
Bits/(Pixel*Frame)                       : 0.199
Stream size                              : 2.23 GiB (76%)
Title                                    : Blended.2014.BDRip-AVC_[***]
Writing library                          : x264 core 142 r2431 ac76440
Encoding settings                        : cabac=1 / ref=10 / deblock=1:-2:-1 / analyse=0x3:0x133 / me=umh / subme=11 / psy=1 / psy_rd=1.05:0.10 / mixed_ref=1 / me_range=48 / chroma_me=1 / trellis=2 / 8x8dct=1 / cqm=0 / deadzone=21,11 / fast_pskip=0 / chroma_qp_offset=-3 / threads=6 / lookahead_threads=1 / sliced_threads=0 / nr=0 / decimate=1 / interlaced=0 / bluray_compat=0 / constrained_intra=0 / bframes=12 / b_pyramid=2 / b_adapt=2 / b_bias=0 / direct=3 / weightb=1 / open_gop=0 / weightp=2 / keyint=240 / keyint_min=23 / scenecut=40 / intra_refresh=0 / rc_lookahead=80 / rc=2pass / mbtree=1 / bitrate=2795 / ratetol=1.0 / qcomp=0.60 / qpmin=0 / qpmax=69 / qpstep=4 / cplxblur=20.0 / qblur=0.5 / ip_ratio=1.40 / aq=2:1.00
Language                                 : English
Default                                  : Yes
Forced                                   : No
Matrix coefficients                      : BT.709
Audio #1
ID                                       : 2
Format                                   : AC-3
Format/Info                              : Audio Coding 3
Mode extension                           : CM (complete main)
Format settings, Endianness              : Big
Codec ID                                 : A_AC3
Duration                                 : 1h 57mn
Bit rate mode                            : Constant
Bit rate                                 : 384 Kbps
Channel(s)                               : 6 channels
Channel positions                        : Front: L C R, Side: L R, LFE
Sampling rate                            : 48.0 KHz
Bit depth                                : 16 bits
Compression mode                         : Lossy
Stream size                              : 322 MiB (11%)
Title                                    : Профессиональный (полное дублирование) iTunes
Language                                 : Russian
Default                                  : Yes
Forced                                   : No
Audio #2
ID                                       : 3
Format                                   : AC-3
Format/Info                              : Audio Coding 3
Mode extension                           : CM (complete main)
Format settings, Endianness              : Big
Codec ID                                 : A_AC3
Duration                                 : 1h 57mn
Bit rate mode                            : Constant
Bit rate                                 : 384 Kbps
Channel(s)                               : 6 channels
Channel positions                        : Front: L C R, Side: L R, LFE
Sampling rate                            : 48.0 KHz
Bit depth                                : 16 bits
Compression mode                         : Lossy
Stream size                              : 322 MiB (11%)
Language                                 : English
Default                                  : No
Forced                                   : No
Text #1
ID                                       : 4
Format                                   : UTF-8
Codec ID                                 : S_TEXT/UTF8
Codec ID/Info                            : UTF-8 Plain Text
Title                                    : Forced
Language                                 : Russian
Default                                  : Yes
Forced                                   : Yes
Text #2
ID                                       : 5
Format                                   : UTF-8
Codec ID                                 : S_TEXT/UTF8
Codec ID/Info                            : UTF-8 Plain Text
Title                                    : Full
Language                                 : Russian
Default                                  : No
Forced                                   : No
Text #3
ID                                       : 6
Format                                   : UTF-8
Codec ID                                 : S_TEXT/UTF8
Codec ID/Info                            : UTF-8 Plain Text
Title                                    : Full
Language                                 : English
Default                                  : No
Forced                                   : No
Menu
00:00:00.000                             : en:1
00:10:30.000                             : en:2
00:21:12.000                             : en:3
00:32:52.000                             : en:4
00:42:19.000                             : en:5
00:49:44.000                             : en:6
00:58:06.000                             : en:7
01:10:38.000                             : en:8
01:19:38.000                             : en:9
01:33:02.000                             : en:10
01:41:17.000                             : en:11
01:50:27.000                             : en:12
Скриншоты
Скачать

Скачать торрент!

Как скачивать? · Что такое торрент? · Рейтинг и ограничения

Сайт не распространяет и не хранит электронные версии произведений, а лишь предоставляет доступ к создаваемому пользователями каталогу ссылок на торрент-файлы, которые содержат только списки хеш-сумм

[Профиль] [ЛС]
Показать сообщения:    
Ответить на тему

Текущее время: Сегодня 02:23

Часовой пояс: GMT + 4



Вы не можете начинать темы
Вы не можете отвечать на сообщения
Вы не можете редактировать свои сообщения
Вы не можете удалять свои сообщения
Вы не можете голосовать в опросах
Вы не можете прикреплять файлы к сообщениям
Вы не можете скачивать файлы