Вероника решила умереть / Вероника решает умереть / Veronika Decides to Die / Veronika wa shinu koto ni shita (Кэй Хориэ / Kei Horie) [2005, Япония, драма, HDRip] VO [D.I.M.]

Ответить на тему
 
Автор Сообщение

user ®

Стаж: 13 лет

Сообщений: 15071

Пост Пост: #1 от 29-Авг-2014 09:45

[Цитировать]

Вероника решила умереть / Вероника решает умереть / Veronika Decides to Die / Veronika wa shinu koto ni shita- -Страна: Япония
Жанр: драма
Год выпуска: 2005
Продолжительность: 01:45:33-Перевод: Одноголосый закадровый [D.I.M.]-Cубтитры: нет
Оригинальная аудиодорожка: нет
Режиссер: Кэй Хориэ / Kei Horie
В ролях: Йоко Маки, Ли Ван, Джан Фубуки, Томоко Накаджима, Кэйко Огиномэ, Юми Такигава, Кэйко Авадзи, Масатика Итимура, Аджа, Хаири Катагири...
Описание: После неудавшейся попытки самоубийства Вероника оказывается в сумасшедшем доме. Когда она окончательно приходит в себя, врачи сообщают ей неутешительную новость: у нее неисправимые проблемы с сердцем и жить ей осталось не так уж и долго. Удастся ли Веронике победить болезнь и вновь обрести желание жить и любить…
Японская экранизация книги Пауло Коэльо.
Релиз от -
Качество видео: HDRip
Формат видео: AVI
Видео: MPEG-4 Visual at 1667 Кбит/сек; 704 x 384 (1.833) at 23.976 fps
Аудио: AC-3 at 192 Кбит/сек; 2 канала, 48,0 КГц
Автор -
MediaInfo
Общее
Полное имя : D:\Фильмы\Азиатские\Вероника решила умереть\Veronika Decides to Die.2005.HDRip.XviD.1400MB. rip by [Assassin's Creed].avi
Формат : AVI
Формат/Информация : Audio Video Interleave
Размер файла : 1,38 Гбайт
Продолжительность : 1 ч. 45 м.
Общий поток : 1868 Кбит/сек
Программа кодирования : VirtualDubMod 1.5.10.3 | www.virtualdub-fr.org || (build 2550/release)
Библиотека кодирования : VirtualDubMod build 2550/release
Видео
Идентификатор : 0
Формат : MPEG-4 Visual
Профиль формата : Advanced Simple@L5
Параметр BVOP формата : 1
Параметр QPel формата : Нет
Параметр GMC формата : Без точки перехода
Параметр матрицы формата : Default (MPEG)
Идентификатор кодека : XVID
Идентификатор кодека/Подсказка : XviD
Продолжительность : 1 ч. 45 м.
Битрейт : 1667 Кбит/сек
Ширина : 704 пикселя
Высота : 384 пикселя
Соотношение сторон : 1,85:1
Частота кадров : 23,976 кадра/сек
Цветовое пространство : YUV
Субдискретизация насыщенности : 4:2:0
Битовая глубина : 8 бит
Тип развёртки : Прогрессивная
Метод сжатия : С потерями
Бит/(Пиксели*Кадры) : 0.257
Размер потока : 1,23 Гбайт (89%)
Библиотека кодирования : XviD 1.2.1 (UTC 2008-12-04)
Аудио
Идентификатор : 1
Формат : AC-3
Формат/Информация : Audio Coding 3
Расширение режима : CM (complete main)
Параметр Endianness формата : Big
Идентификатор кодека : 2000
Продолжительность : 1 ч. 45 м.
Вид битрейта : Постоянный
Битрейт : 192 Кбит/сек
Каналы : 2 канала
Расположение каналов : Front: L R
Частота : 48,0 КГц
Битовая глубина : 16 бит
Метод сжатия : С потерями
Размер потока : 145 Мбайт (10%)
Выравнивание : Разделение по промежуткам
Продолжительность промежутка : 42 мс. (1,00 видеокадр)
Время предзагрузки промежутка : 500 мс.
Скриншот c названием фильма Скриншоты
Скачать

Скачать торрент! Вероника решила умереть / Вероника решает умереть / Veronika Decides to Die / Veronika wa shinu koto ni shita (Кэй Хориэ / Kei Horie) [2005, Япония, драма, HDRip] VO [D.I.M.]

Как скачивать? · Что такое торрент? · Рейтинг и ограничения

Сайт не распространяет и не хранит электронные версии произведений, а лишь предоставляет доступ к создаваемому пользователями каталогу ссылок на торрент-файлы, которые содержат только списки хеш-сумм

[Профиль] [ЛС]
Показать сообщения:    
Ответить на тему

Текущее время: Сегодня 17:13

Часовой пояс: GMT + 4



Вы не можете начинать темы
Вы не можете отвечать на сообщения
Вы не можете редактировать свои сообщения
Вы не можете удалять свои сообщения
Вы не можете голосовать в опросах
Вы не можете прикреплять файлы к сообщениям
Вы не можете скачивать файлы