Хулиган / Hellion (Кэт Кэндлер / Kat Candler) [2014, США, Драма, WEB-DL 1080p] Sub Rus, Eng + Original Eng

Ответить на тему
 
Автор Сообщение

user ®

Стаж: 8 лет 3 месяца

Сообщений: 20008

Пост Пост: #1 от 29-Авг-2014 03:25

[Цитировать]

Хулиган
Hellion

-
Страна: США
Жанр: Драма
Год выпуска: 2014
Продолжительность: 01:39:19
Перевод: Субтитры
Cубтитры: английские, русские (свой перевод)
Оригинальная аудиодорожка: английская
-
Режиссер: Кэт Кэндлер / Kat Candler
В ролях: Аарон Пол, Джульетт Льюис, Джош Уиггинс, Деке Гарнер, Далтон Саттон, Кэмрон Оуэнс, Динал Коул, Джонни Марс, Уолт Робертс, Аннали Джеффрис
Описание: Тринадцатилетний Джейкоб всё сложнее поддаётся контролированию. Делинквентное поведение подростка, помешанного на мотокроссе, вносит разлад в его семью. Ситуация окончательно становится взрывоопасной, когда Джейкоб привлекает своего младшего брата, Уэса, к участию в преступлении. Отец Джейкоба, который ещё не смог до конца оправиться после смерти жены, Холлис почти не следит за своими сыновьями. Когда же вмешиваются службы защиты детей и отправляют Уэса жить к его тёте Пэм, Холлису и Джейкобу приходится осознать свою вину, чтобы вернуть Уэса домой.
-
Сэмпл
-
Тип релиза: WEB-DL 1080p
Контейнер: MKV
Видео: 1920x792, 23.976 fps, ~3 784 kbps avg
Аудио: [ENG] 384 kbps, 48 kHz, AC3 Dolby Digital, 3/2 (L,C,R,l,r) + LFE ch
Формат субтитров: softsub (SRT)
MediaInfo
General
Unique ID : 177201636763637478520682247507716191614 (0x854FCB395818C20BBE1810922131B57E)
Complete name : C:\D\Movies\Hellion.2014.1080p.WEB-DL.mkv
Format : Matroska
Format version : Version 4 / Version 2
File size : 2.95 GiB
Duration : 1h 39mn
Overall bit rate : 4 253 Kbps
Encoded date : UTC 2014-08-23 16:33:06
Writing application : mkvmerge v7.1.0 ('Good Love') 64bit built on Jul 27 2014 13:06:55
Writing library : libebml v1.3.0 + libmatroska v1.4.1
DURATION : 01:31:31.000000000
NUMBER_OF_FRAMES : 827
NUMBER_OF_BYTES : 25511
_STATISTICS_WRITING_APP : mkvmerge v7.1.0 ('Good Love') 64bit built on Jul 27 2014 13:06:55
_STATISTICS_WRITING_DATE_UTC : 2014-08-23 16:33:06
_STATISTICS_TAGS : BPS DURATION NUMBER_OF_FRAMES NUMBER_OF_BYTES
Attachment : Yes / Yes / Yes / Yes
Video
ID : 1
Format : AVC
Format/Info : Advanced Video Codec
Format profile : High@L4.0
Format settings, CABAC : Yes
Format settings, ReFrames : 5 frames
Codec ID : V_MPEG4/ISO/AVC
Duration : 1h 39mn
Bit rate : 3 784 Kbps
Width : 1 920 pixels
Height : 792 pixels
Display aspect ratio : 2.40:1
Frame rate mode : Constant
Frame rate : 23.976 fps
Color space : YUV
Chroma subsampling : 4:2:0
Bit depth : 8 bits
Scan type : Progressive
Bits/(Pixel*Frame) : 0.104
Stream size : 2.63 GiB (89%)
Title : Hellion.2014.1080p.WEB-DL.DD5.1.H264-RARBG
Language : English
Default : Yes
Forced : No
Color primaries : BT.709
Transfer characteristics : BT.709
Matrix coefficients : BT.709
Audio
ID : 2
Format : AC-3
Format/Info : Audio Coding 3
Mode extension : CM (complete main)
Format settings, Endianness : Big
Codec ID : A_AC3
Duration : 1h 39mn
Bit rate mode : Constant
Bit rate : 384 Kbps
Channel(s) : 6 channels
Channel positions : Front: L C R, Side: L R, LFE
Sampling rate : 48.0 KHz
Bit depth : 16 bits
Compression mode : Lossy
Stream size : 273 MiB (9%)
Title : Hellion.2014.1080p.WEB-DL.DD5.1.H264-RARBG
Language : English
Default : Yes
Forced : No
Text #1
ID : 3
Format : UTF-8
Codec ID : S_TEXT/UTF8
Codec ID/Info : UTF-8 Plain Text
Language : Russian
Default : Yes
Forced : No
Text #2
ID : 4
Format : UTF-8
Codec ID : S_TEXT/UTF8
Codec ID/Info : UTF-8 Plain Text
Language : English
Default : No
Forced : No
Menu
00:00:00.000 : en:Chapter 1
00:11:05.000 : en:Chapter 2
00:20:00.000 : en:Chapter 3
00:30:15.000 : en:Chapter 4
00:39:29.000 : en:Chapter 5
00:50:42.000 : en:Chapter 6
01:00:38.000 : en:Chapter 7
01:10:25.000 : en:Chapter 8
01:19:33.000 : en:Chapter 9
01:30:21.000 : en:Chapter 10
01:34:10.000 : en:Chapter 11
Скриншоты
Скачать

Скачать торрент!

Как скачивать? · Что такое торрент? · Рейтинг и ограничения

Сайт не распространяет и не хранит электронные версии произведений, а лишь предоставляет доступ к создаваемому пользователями каталогу ссылок на торрент-файлы, которые содержат только списки хеш-сумм

[Профиль] [ЛС]
Показать сообщения:    
Ответить на тему

Текущее время: Сегодня 20:56

Часовой пояс: GMT + 4



Вы не можете начинать темы
Вы не можете отвечать на сообщения
Вы не можете редактировать свои сообщения
Вы не можете удалять свои сообщения
Вы не можете голосовать в опросах
Вы не можете прикреплять файлы к сообщениям
Вы не можете скачивать файлы