Соседи. На тропе войны / Neighbors (Николас Столлер / Nicholas Stoller) [2014 г., США, Комедия, BDRip 720p] Dub + Sub (Rus) + Original (Eng)

Ответить на тему
 
Автор Сообщение

user ®

Стаж: 7 лет 7 месяцев

Сообщений: 20008

Пост Пост: #1 от 29-Авг-2014 03:25

[Цитировать]

Соседи. На тропе войны / Neighbors«Семейные против студентов»- Страна: США
Жанр: Комедия
Год выпуска: 2014
Продолжительность: 01:36:41
-Перевод: Профессиональный (дублированный) |Blu-ray CEE|
Cубтитры: русские
Оригинальная аудиодорожка: английский

Режиссер: Николас Столлер / Nicholas Stoller
В ролях: Сет Роген, Зак Эфрон, Роуз Бирн, Элиз Варгас, Зоя Варгас, Брайан Хаски, Айк Баринхолц, Карла Галло, Дэйв Франко, Хелстон Сейдж и др.
Описание: Как известно, мужчины бывают двух типов: холостые и глубоко женатые. Первые молоды, мускулисты и точно магнит притягивают блондинок и шумных друзей. Вторые обитают дома, выращивают детей и поглощают сериалы по телеку. Обычно их пути не пересекаются. Но стоит им стать соседями, мужчины выходят на тропу войны.
-Доп. информация: Релиз от

Сэмпл: http://multi-up.com/995105-Качество видео: BDRip
Формат видео: MKV
Видео: AVC, 1280x534 (2.35:1), 23.976 fps, 5 193 Kbps (0.317 bit/pixel)
Аудио #1: AC-3, 48.0 KHz, 6 ch, 640 Kbps, CBR (Russian)
Аудио #2: AC-3, 48.0 KHz, 6 ch, 640 Kbps, CBR (English)
Субтитры: Russian (SRT)
-

» MediaInfo
General
Unique ID : 189373694216753119052840149871239704101 (0x8E780BFD849B997692CDBB1997052E25)
Complete name : D:\Фильмы (2014)\Sosedi. Na trope vojny.(2014).BDRip.720p.[denis100].mkv
Format : Matroska
Format version : Version 2
File size : 4.37 GiB
Duration : 1h 36mn
Overall bit rate : 6 465 Kbps
Movie name : Sosedi. Na trope vojny.(2014).BDRip.720p.[denis100]
Encoded date : UTC 2014-08-27 07:19:42
Writing application : mkvmerge v5.8.0 ('No Sleep / Pillow') built on Sep 2 2012 15:37:04
Writing library : libebml v1.2.3 + libmatroska v1.3.0
Video
ID : 1
Format : AVC
Format/Info : Advanced Video Codec
Format profile : High@L4.1
Format settings, CABAC : Yes
Format settings, ReFrames : 11 frames
Codec ID : V_MPEG4/ISO/AVC
Duration : 1h 36mn
Bit rate : 5 193 Kbps
Width : 1 280 pixels
Height : 534 pixels
Display aspect ratio : 2.40:1
Frame rate mode : Constant
Frame rate : 23.976 fps
Color space : YUV
Chroma subsampling : 4:2:0
Bit depth : 8 bits
Scan type : Progressive
Bits/(Pixel*Frame) : 0.317
Stream size : 3.42 GiB (78%)
Title : Sosedi. Na trope vojny.(2014).BDRip.720p.[denis100]
Writing library : x264 core 142 r2453 ea0ca51
Encoding settings : cabac=1 / ref=11 / deblock=1:-3:-3 / analyse=0x3:0x133 / me=umh / subme=11 / psy=1 / psy_rd=1.00:0.00 / mixed_ref=1 / me_range=32 / chroma_me=1 / trellis=2 / 8x8dct=1 / cqm=0 / deadzone=21,11 / fast_pskip=0 / chroma_qp_offset=-2 / threads=6 / lookahead_threads=1 / sliced_threads=0 / nr=0 / decimate=1 / interlaced=0 / bluray_compat=0 / constrained_intra=0 / bframes=8 / b_pyramid=2 / b_adapt=2 / b_bias=0 / direct=3 / weightb=1 / open_gop=0 / weightp=2 / keyint=240 / keyint_min=23 / scenecut=40 / intra_refresh=0 / rc=2pass / mbtree=0 / bitrate=5193 / ratetol=1.0 / qcomp=0.60 / qpmin=0 / qpmax=69 / qpstep=4 / cplxblur=20.0 / qblur=0.5 / ip_ratio=1.40 / pb_ratio=1.30 / aq=1:1.00
Language : English
Default : Yes
Forced : No
Audio #1
ID : 2
Format : AC-3
Format/Info : Audio Coding 3
Mode extension : CM (complete main)
Format settings, Endianness : Big
Codec ID : A_AC3
Duration : 1h 36mn
Bit rate mode : Constant
Bit rate : 640 Kbps
Channel(s) : 6 channels
Channel positions : Front: L C R, Side: L R, LFE
Sampling rate : 48.0 KHz
Bit depth : 16 bits
Compression mode : Lossy
Stream size : 443 MiB (10%)
Title : Дублированный
Language : Russian
Default : Yes
Forced : No
Audio #2
ID : 3
Format : AC-3
Format/Info : Audio Coding 3
Mode extension : CM (complete main)
Format settings, Endianness : Big
Codec ID : A_AC3
Duration : 1h 36mn
Bit rate mode : Constant
Bit rate : 640 Kbps
Channel(s) : 6 channels
Channel positions : Front: L C R, Side: L R, LFE
Sampling rate : 48.0 KHz
Bit depth : 16 bits
Compression mode : Lossy
Stream size : 443 MiB (10%)
Title : English
Language : English
Default : No
Forced : No
Text
ID : 4
Format : UTF-8
Codec ID : S_TEXT/UTF8
Codec ID/Info : UTF-8 Plain Text
Title : Russian
Language : Russian
Default : No
Forced : No
Menu
00:00:00.000 : en:Chapter 01
00:05:26.784 : en:Chapter 02
00:08:42.188 : en:Chapter 03
00:12:29.790 : en:Chapter 04
00:17:32.384 : en:Chapter 05
00:22:19.046 : en:Chapter 06
00:25:34.991 : en:Chapter 07
00:30:49.222 : en:Chapter 08
00:35:11.025 : en:Chapter 09
00:41:16.891 : en:Chapter 10
00:46:14.229 : en:Chapter 11
00:49:23.585 : en:Chapter 12
00:54:13.250 : en:Chapter 13
01:00:18.740 : en:Chapter 14
01:04:47.174 : en:Chapter 15
01:10:16.253 : en:Chapter 16
01:14:24.084 : en:Chapter 17
01:18:36.670 : en:Chapter 18
01:26:15.170 : en:Chapter 19
01:31:06.502 : en:Chapter 20
01:36:41.545 : en:Chapter 21
» Скриншот c названием фильма » Скриншоты
Скачать

Скачать торрент!

Как скачивать? · Что такое торрент? · Рейтинг и ограничения

Сайт не распространяет и не хранит электронные версии произведений, а лишь предоставляет доступ к создаваемому пользователями каталогу ссылок на торрент-файлы, которые содержат только списки хеш-сумм

[Профиль] [ЛС]
Показать сообщения:    
Ответить на тему

Текущее время: Сегодня 00:29

Часовой пояс: GMT + 4



Вы не можете начинать темы
Вы не можете отвечать на сообщения
Вы не можете редактировать свои сообщения
Вы не можете удалять свои сообщения
Вы не можете голосовать в опросах
Вы не можете прикреплять файлы к сообщениям
Вы не можете скачивать файлы