Удаленный контроль / Чудо техники / Обратная перемотка / Дистанционное управление / Remote Control (Джефф Либерман / Jeff Lieberman) [1988, США, фантастика, комедия, BDRip 1080p] MVO (Инис) + DVO (Рен-тв) + AVO (Алексеев) + Original Eng + Commentary

Ответить на тему
 
Автор Сообщение

user ®

Стаж: 7 лет 7 месяцев

Сообщений: 20008

Пост Пост: #1 от 29-Авг-2014 03:25

[Цитировать]

Удаленный контроль / Чудо техники / Обратная перемотка / Дистанционное управление / Remote Control
Страна: США
Жанр: ужасы, фантастика, комедия
Год выпуска: 1988
Продолжительность: 01:28:06
-
Перевод 1: Профессиональный (многоголосый закадровый) Инис
Перевод 2: Профессиональный (двухголосый закадровый) Рен-тв
Перевод 3: Авторский (одноголосый закадровый) Антон Алексеев
Cубтитры: нет
Оригинальная аудиодорожка: английский + комментарий
-
Режиссер: Джефф Либерман / Jeff Lieberman
В ролях: Кевин Диллон, Дебора Гудрич, Кристофер Уинн, Фрэнк Бэддор, Дженнифер Тилли, Каарен Ли, Берт Ремсен, Джеролд Пирсон, Дженнифер Бьюкэнэн
-
Описание: В видеопрокате имелась кассета, которая убивала зрителей. Но не все зрители — жертвы, и не все — трусы. Нашлись отчаянные молодые ребята, которые решили выяснить, что же это за злодейская кассета.
-

-
Сэмпл: https://www.sendspace.com/file/eqiq09
-
Тип релиза: BDRip 1080p
Контейнер: MKV
Видео: 1 920x1 040p (1.85:1), 23.976 fps, 14900 kbps
Аудио 1: русский / AC3 / 2.0 / 48 kHz / 192 kbps / 16 bit || MVO Инис
Аудио 2: русский / AC3 / 2.0 / 48 kHz / 224 kbps / 16 bit || DVO Рен-тв
Аудио 3: русский / AC3 / 2.0 / 48 kHz / 192 kbps / 16 bit || AVO Алексеев
Аудио 4: английский / AC3 / 2.0 / 48 kHz / 192 kbps / 16 bit || ENG
Аудио 5: английский / AC3 / 2.0 / 48 kHz / 192 kbps / 16 bit || ENG - Commentary
Доп. информация
Скачано с другого трекера и добавлена авторская озвучка, за ее синхрон спасибо sasha2072007 с kosmoaelita.
з.ы. В исходнике небыло субтитров (в сети также нигде не нашел) и оригинальная дорожка такого же качества.
MediaInfo
General
Unique ID : 183364248392199804555973432192163039568 (0x89F2AB6F8CA95AB3855C77E8561AC950)
Complete name : C:\Users\ALEX\Downloads\Фильмы\HD\Remote Control.1988.BDRip.1080p.3xRus.2xEng.mkv
Format : Matroska
Format version : Version 4 / Version 2
File size : 9.96 GiB
Duration : 1h 28mn
Overall bit rate : 16.2 Mbps
Encoded date : UTC 2014-08-27 12:11:16
Writing application : mkvmerge v6.6.0 ('The Edge Of The In Between') built on Dec 1 2013 17:55:00
Writing library : libebml v1.3.0 + libmatroska v1.4.1
Video
ID : 1
Format : AVC
Format/Info : Advanced Video Codec
Format profile : High@L4.1
Format settings, CABAC : Yes
Format settings, ReFrames : 4 frames
Codec ID : V_MPEG4/ISO/AVC
Duration : 1h 28mn
Bit rate : 14.9 Mbps
Width : 1 920 pixels
Height : 1 040 pixels
Display aspect ratio : 1.85:1
Frame rate mode : Constant
Frame rate : 23.976 fps
Color space : YUV
Chroma subsampling : 4:2:0
Bit depth : 8 bits
Scan type : Progressive
Bits/(Pixel*Frame) : 0.311
Stream size : 9.15 GiB (92%)
Writing library : x264 core 138 r2358 9e941d1
Encoding settings : cabac=1 / ref=4 / deblock=1:-1:-1 / analyse=0x3:0x113 / me=umh / subme=10 / psy=1 / psy_rd=1.00:0.15 / mixed_ref=1 / me_range=32 / chroma_me=1 / trellis=2 / 8x8dct=1 / cqm=0 / deadzone=21,11 / fast_pskip=0 / chroma_qp_offset=-3 / threads=6 / lookahead_threads=1 / sliced_threads=0 / nr=0 / decimate=1 / interlaced=0 / bluray_compat=0 / constrained_intra=0 / bframes=8 / b_pyramid=2 / b_adapt=2 / b_bias=0 / direct=1 / weightb=1 / open_gop=0 / weightp=2 / keyint=230 / keyint_min=23 / scenecut=40 / intra_refresh=0 / rc_lookahead=40 / rc=crf / mbtree=0 / crf=20.5 / qcomp=0.60 / qpmin=0 / qpmax=69 / qpstep=4 / vbv_maxrate=40000 / vbv_bufsize=50000 / crf_max=0.0 / nal_hrd=none / ip_ratio=1.40 / pb_ratio=1.30 / aq=1:1.00
Language : English
Default : Yes
Forced : No
Audio #1
ID : 2
Format : AC-3
Format/Info : Audio Coding 3
Mode extension : CM (complete main)
Format settings, Endianness : Big
Codec ID : A_AC3
Duration : 1h 28mn
Bit rate mode : Constant
Bit rate : 192 Kbps
Channel(s) : 2 channels
Channel positions : Front: L R
Sampling rate : 48.0 KHz
Bit depth : 16 bits
Compression mode : Lossy
Stream size : 121 MiB (1%)
Title : MVO (Инис)
Language : Russian
Default : Yes
Forced : No
Audio #2
ID : 3
Format : AC-3
Format/Info : Audio Coding 3
Mode extension : CM (complete main)
Format settings, Endianness : Big
Codec ID : A_AC3
Duration : 1h 28mn
Bit rate mode : Constant
Bit rate : 224 Kbps
Channel(s) : 2 channels
Channel positions : Front: L R
Sampling rate : 48.0 KHz
Bit depth : 16 bits
Compression mode : Lossy
Stream size : 141 MiB (1%)
Title : DVO (Рен-ТВ)
Language : Russian
Default : No
Forced : No
Audio #3
ID : 4
Format : AC-3
Format/Info : Audio Coding 3
Mode extension : CM (complete main)
Format settings, Endianness : Big
Codec ID : A_AC3
Duration : 1h 28mn
Bit rate mode : Constant
Bit rate : 192 Kbps
Channel(s) : 2 channels
Channel positions : Front: L R
Sampling rate : 48.0 KHz
Bit depth : 16 bits
Compression mode : Lossy
Stream size : 121 MiB (1%)
Title : AVO (Алексеев)
Language : Russian
Default : No
Forced : No
Audio #4
ID : 5
Format : AC-3
Format/Info : Audio Coding 3
Mode extension : CM (complete main)
Format settings, Endianness : Big
Codec ID : A_AC3
Duration : 1h 28mn
Bit rate mode : Constant
Bit rate : 192 Kbps
Channel(s) : 2 channels
Channel positions : Front: L R
Sampling rate : 48.0 KHz
Bit depth : 16 bits
Compression mode : Lossy
Stream size : 121 MiB (1%)
Title : Original
Language : English
Default : No
Forced : No
Audio #5
ID : 6
Format : AC-3
Format/Info : Audio Coding 3
Mode extension : CM (complete main)
Format settings, Endianness : Big
Codec ID : A_AC3
Duration : 1h 28mn
Bit rate mode : Constant
Bit rate : 192 Kbps
Channel(s) : 2 channels
Channel positions : Front: L R
Sampling rate : 48.0 KHz
Bit depth : 16 bits
Compression mode : Lossy
Stream size : 121 MiB (1%)
Title : Commentary
Language : English
Default : No
Forced : No
Скриншоты
Скачать

Скачать торрент!

Как скачивать? · Что такое торрент? · Рейтинг и ограничения

Сайт не распространяет и не хранит электронные версии произведений, а лишь предоставляет доступ к создаваемому пользователями каталогу ссылок на торрент-файлы, которые содержат только списки хеш-сумм

[Профиль] [ЛС]
Показать сообщения:    
Ответить на тему

Текущее время: Сегодня 09:53

Часовой пояс: GMT + 4



Вы не можете начинать темы
Вы не можете отвечать на сообщения
Вы не можете редактировать свои сообщения
Вы не можете удалять свои сообщения
Вы не можете голосовать в опросах
Вы не можете прикреплять файлы к сообщениям
Вы не можете скачивать файлы