Peйd 2 / Тhе Rаiд 2: Веrаnдаl (Гapeт Эвaнc / Gаrеth Еvаns) [2014, Индонезия, США, боевик, триллер, криминал, BDRip-AVC] AVO (Сербин) + 2x VO (Матвеев, Есарев) + Original (Idn) + Commentary + Sub (Rus, Eng)

Ответить на тему
 
Автор Сообщение

user ®

Стаж: 7 лет 7 месяцев

Сообщений: 20008

Пост Пост: #1 от 28-Авг-2014 15:25

[Цитировать]

Peйd 2 / Тhе Rаiд 2: Веrаnдаl
«Один против всех»
- Страна: Индонезия, США | Pt. Merantau Films, XYZ Films
Жанр: боевик, триллер, криминал
Год выпуска: 2014
Продолжительность: 02:30:28 час.
Перевод #1: Авторский (одноголосый закадровый) - Ю.Сербин
Перевод #2: Одноголосый закадровый - А.Матвеев | отдельно
Перевод #3: Одноголосый закадровый - Д.Есарев | отдельно
Субтитры: Русские (Матвеев, дубляж, Дэн 107miller), Английские (полные, комментарии, SDH).
Оригинальная аудиодорожка: Индонезийсая
Режиссер: Гарет Эванс / Gareth Evans
В ролях: Тио Пакусодево, Ока Антара, Дони Аламсях, Джули Эстелль, Яян Рухьян, Рюхэй Мацуда, Алекс Аббад, Арифин Путра, Сесеп Ариф Рахман, Ико Ювайс
Описание: Из трех полицейских, выбравшихся из кровавого ада первой части, в живых остается только офицер Рама. Уволившись из спецназа, он пробует начать жизнь заново, но вскоре прошлое жестко напоминает о себе — преступники убивают его брата. Чтобы отомстить, он внедряется в мощный криминальный синдикат, где быстро поднимается до самых вершин бандитской иерархии. Врагов здесь еще больше, и каждый неверный шаг может оказаться последним. Здесь нет ни близких, ни друзей, ни любви, ни тоски, ни жалости!

Качество: BDRip-AVC => Сэмпл | исх. Рейд 2 / The Raid 2: Berandal (2014) 1080p BD-Remux - HDCLUB
Формат видео: MKV
Релиз от RG MATROSKA & tRuAVC
Автор рипа zOJIOtOi
Видео: 1144x476p (2.40:1), 23,976 fps, H.264 ~2 685 kbps avg, 0.202 bit/pixel
Аудио #1: 48 kHz, AC3, 3/2 (L,C,R,l,r) + LFE ch, ~448.00 kbps avg | Авторский (одноголосый закадровый) - Ю.Сербин
Аудио #2: 48 kHz, AC3, 3/2 (L,C,R,l,r) + LFE ch, ~448.00 kbps avg | Оригинал (индонезийский)
Аудио #3: 48 kHz, AC3, 2 (L R) ch, ~192.00 kbps avg | Комментарии - Director Gareth Evans
Аудио #4: 48 kHz, AC3, 3/2 (L,C,R,l,r) + LFE ch, ~448.00 kbps avg | Одноголосый закадровый - А.Матвеев | отдельно
Аудио #5: 48 kHz, AC3, 3/2 (L,C,R,l,r) + LFE ch, ~448.00 kbps avg | Одноголосый закадровый - Д.Есарев | отдельно
Формат субтитров: softsub (SRT)
MediaInfo | log x264
log x264
raw [info]: 1144x476p 1:1 @ 24000/1001 fps (cfr)
x264 [info]: using SAR=1/1
x264 [info]: using cpu capabilities: MMX2 SSE2Fast SSSE3 SSE4.2 AVX
x264 [info]: profile High, level 4.1
x264 [info]: cabac=1 ref=13 deblock=1:-2:-2 analyse=0x3:0x133 me=umh subme=11 psy=1 fade_compensate=0.00 psy_rd=1.10:0.00 mixed_ref=1 me_range=32 chroma_me=1 trellis=2 8x8dct=1 cqm=0 deadzone=21,11 fast_pskip=0 chroma_qp_offset=-2 threads=6 lookahead_threads=1 sliced_threads=0 nr=0 decimate=1 interlaced=0 bluray_compat=0 constrained_intra=0 fgo=0 bframes=16 b_pyramid=2 b_adapt=2 b_bias=0 direct=1 weightb=1 open_gop=0 weightp=2 keyint=250 keyint_min=23 scenecut=40 intra_refresh=0 rc_lookahead=40 rc=crf mbtree=0 crf=16.9000 qcomp=0.70 qpmin=0 qpmax=69 qpstep=4 vbv_maxrate=50000 vbv_bufsize=62500 crf_max=0.0 nal_hrd=none filler=0 ip_ratio=1.30 pb_ratio=1.20 aq=1:0.80
x264 [info]: frame I:1289 Avg QP:14.20 size: 59518
x264 [info]: frame P:46649 Avg QP:15.85 size: 26452
x264 [info]: frame B:168518 Avg QP:17.23 size: 10203
x264 [info]: consecutive B-frames: 2.6% 3.1% 7.2% 21.2% 14.3% 27.4% 7.4% 8.9% 2.7% 1.1% 1.2% 2.0% 0.6% 0.3% 0.1% 0.1% 0.0%
x264 [info]: mb I I16..4: 5.8% 77.8% 16.4%
x264 [info]: mb P I16..4: 0.6% 14.2% 2.0% P16..4: 27.3% 35.2% 13.1% 2.3% 0.2% skip: 5.1%
x264 [info]: mb B I16..4: 0.1% 1.7% 0.3% B16..8: 34.7% 25.1% 4.9% direct: 4.8% skip:28.4% L0:44.6% L1:45.3% BI:10.1%
x264 [info]: 8x8 transform intra:83.4% inter:57.1%
x264 [info]: coded y,uvDC,uvAC intra: 93.2% 77.0% 46.8% inter: 25.5% 17.2% 3.0%
x264 [info]: i16 v,h,dc,p: 13% 12% 2% 73%
x264 [info]: i8 v,h,dc,ddl,ddr,vr,hd,vl,hu: 8% 10% 4% 10% 14% 13% 15% 12% 15%
x264 [info]: i4 v,h,dc,ddl,ddr,vr,hd,vl,hu: 9% 11% 3% 8% 16% 14% 16% 10% 13%
x264 [info]: i8c dc,h,v,p: 34% 32% 19% 16%
x264 [info]: Weighted P-Frames: Y:4.5% UV:2.7%
x264 [info]: ref P L0: 44.6% 8.1% 16.8% 6.8% 5.6% 4.1% 3.7% 2.1% 2.0% 1.6% 1.6% 1.4% 1.4% 0.2% 0.0%
x264 [info]: ref B L0: 69.0% 12.0% 6.1% 3.3% 2.4% 2.0% 1.7% 1.0% 0.9% 0.8% 0.5% 0.2%
x264 [info]: ref B L1: 92.1% 7.9%
x264 [info]: kb/s:2685.04
encoded 216456 frames, 3.70 fps, 2685.04 kb/s
Общее
Уникальный идентификатор : 184842053855882020657798378813096859568 (0x8B0F48DED7B4388D8CEA39D5B4FA17B0)
Полное имя : D:\my rips\The.Raid.2.Berandal.2014.BDRip-AVC.Rus.Eng.Com.Subs.by.zOJIOtOi\The.Raid.2.Berandal.2014.BDRip-AVC.Rus.Eng.Com.Subs.by.zOJIOtOi.mkv
Формат : Matroska
Версия формата : Version 4 / Version 2
Размер файла : 3,97 Гбайт
Продолжительность : 2 ч. 30 м.
Общий поток : 3776 Кбит/сек
Дата кодирования : UTC 2014-08-26 12:36:40
Программа кодирования : mkvmerge v7.0.0 ('Where We Going') 64bit built on Jun 9 2014 15:16:27
Библиотека кодирования : libebml v1.3.0 + libmatroska v1.4.1
_STATISTICS_WRITING_APP : mkvmerge v7.0.0 ('Where We Going') 64bit built on Jun 9 2014 15:16:27
_STATISTICS_WRITING_DATE_UTC : 2014-08-26 12:36:40
_STATISTICS_TAGS : BPS DURATION NUMBER_OF_FRAMES NUMBER_OF_BYTES
DURATION : 02:25:39.146000000
NUMBER_OF_FRAMES : 2611
NUMBER_OF_BYTES : 146473
Attachment : Yes
Видео
Идентификатор : 1
Формат : AVC
Формат/Информация : Advanced Video Codec
Профиль формата : High@L4.1
Параметр CABAC формата : Да
Параметр ReFrames формата : 13 кадров
Идентификатор кодека : V_MPEG4/ISO/AVC
Продолжительность : 2 ч. 30 м.
Битрейт : 2613 Кбит/сек
Ширина : 1144 пикселя
Высота : 476 пикселей
Соотношение сторон : 2,40:1
Режим частоты кадров : Постоянный
Частота кадров : 23,976 кадра/сек
Цветовое пространство : YUV
Субдискретизация насыщенности : 4:2:0
Битовая глубина : 8 бит
Тип развёртки : Прогрессивная
Бит/(Пиксели*Кадры) : 0.200
Размер потока : 2,75 Гбайт (69%)
Заголовок : The.Raid.2.Berandal.2014.BDRip-AVC.by.zOJIOtOi
Библиотека кодирования : x264 core 142 r2453kMod ea0ca51
Настройки программы : cabac=1 / ref=13 / deblock=1:-2:-2 / analyse=0x3:0x133 / me=umh / subme=11 / psy=1 / fade_compensate=0.00 / psy_rd=1.10:0.00 / mixed_ref=1 / me_range=32 / chroma_me=1 / trellis=2 / 8x8dct=1 / cqm=0 / deadzone=21,11 / fast_pskip=0 / chroma_qp_offset=-2 / threads=6 / lookahead_threads=1 / sliced_threads=0 / nr=0 / decimate=1 / interlaced=0 / bluray_compat=0 / constrained_intra=0 / fgo=0 / bframes=16 / b_pyramid=2 / b_adapt=2 / b_bias=0 / direct=1 / weightb=1 / open_gop=0 / weightp=2 / keyint=250 / keyint_min=23 / scenecut=40 / intra_refresh=0 / rc_lookahead=40 / rc=crf / mbtree=0 / crf=16.9000 / qcomp=0.70 / qpmin=0 / qpmax=69 / qpstep=4 / vbv_maxrate=50000 / vbv_bufsize=62500 / crf_max=0.0 / nal_hrd=none / filler=0 / ip_ratio=1.30 / pb_ratio=1.20 / aq=1:0.80
Язык : English
Default : Да
Forced : Нет
_STATISTICS_WRITING_APP : mkvmerge v7.0.0 ('Where We Going') 64bit built on Jun 9 2014 15:16:27
_STATISTICS_WRITING_DATE_UTC : 2014-08-26 12:36:40
_STATISTICS_TAGS : BPS DURATION NUMBER_OF_FRAMES NUMBER_OF_BYTES
DURATION : 02:30:28.019000000
NUMBER_OF_FRAMES : 216456
NUMBER_OF_BYTES : 3030073601
Основные цвета : BT.709
Характеристики трансфера : BT.709
Коэффициенты матрицы : BT.709
Аудио #1
Идентификатор : 2
Формат : AC-3
Формат/Информация : Audio Coding 3
Расширение режима : CM (complete main)
Параметр Endianness формата : Big
Идентификатор кодека : A_AC3
Продолжительность : 2 ч. 30 м.
Вид битрейта : Постоянный
Битрейт : 448 Кбит/сек
Каналы : 6 каналов
Расположение каналов : Front: L C R, Side: L R, LFE
Частота : 48,0 КГц
Битовая глубина : 16 бит
Метод сжатия : С потерями
Размер потока : 482 Мбайт (12%)
Заголовок : Авторский (одноголосый закадровый) - Ю.Сербин | DD 5.1 @ 448 kbps
Язык : Russian
Default : Да
Forced : Да
Аудио #2
Идентификатор : 3
Формат : AC-3
Формат/Информация : Audio Coding 3
Расширение режима : CM (complete main)
Параметр Endianness формата : Big
Идентификатор кодека : A_AC3
Продолжительность : 2 ч. 30 м.
Вид битрейта : Постоянный
Битрейт : 448 Кбит/сек
Каналы : 6 каналов
Расположение каналов : Front: L C R, Side: L R, LFE
Частота : 48,0 КГц
Битовая глубина : 16 бит
Метод сжатия : С потерями
Размер потока : 482 Мбайт (12%)
Заголовок : Оригинал (индонезийский) | DD 5.1 @ 448 kbps
Язык : Indonesian
Default : Нет
Forced : Нет
Аудио #3
Идентификатор : 4
Формат : AC-3
Формат/Информация : Audio Coding 3
Расширение режима : CM (complete main)
Параметр Endianness формата : Big
Идентификатор кодека : A_AC3
Продолжительность : 2 ч. 30 м.
Вид битрейта : Постоянный
Битрейт : 192 Кбит/сек
Каналы : 2 канала
Расположение каналов : Front: L R
Частота : 48,0 КГц
Битовая глубина : 16 бит
Метод сжатия : С потерями
Размер потока : 207 Мбайт (5%)
Заголовок : Commentary with Director Gareth Evans
Язык : English
Default : Нет
Forced : Нет
Текст #1
Идентификатор : 5
Формат : UTF-8
Идентификатор кодека : S_TEXT/UTF8
Идентификатор кодека/Информация : UTF-8 Plain Text
Заголовок : Дэн 107miller
Язык : Russian
Default : Нет
Forced : Нет
Текст #2
Идентификатор : 6
Формат : UTF-8
Идентификатор кодека : S_TEXT/UTF8
Идентификатор кодека/Информация : UTF-8 Plain Text
Заголовок : Matveev
Язык : Russian
Default : Нет
Forced : Нет
Текст #3
Идентификатор : 7
Формат : UTF-8
Идентификатор кодека : S_TEXT/UTF8
Идентификатор кодека/Информация : UTF-8 Plain Text
Заголовок : Dub
Язык : Russian
Default : Нет
Forced : Нет
Текст #4
Идентификатор : 8
Формат : UTF-8
Идентификатор кодека : S_TEXT/UTF8
Идентификатор кодека/Информация : UTF-8 Plain Text
Заголовок : Full
Язык : English
Default : Нет
Forced : Нет
Текст #5
Идентификатор : 9
Формат : UTF-8
Идентификатор кодека : S_TEXT/UTF8
Идентификатор кодека/Информация : UTF-8 Plain Text
Заголовок : SDH
Язык : English
Default : Нет
Forced : Нет
Текст #6
Идентификатор : 10
Формат : UTF-8
Идентификатор кодека : S_TEXT/UTF8
Идентификатор кодека/Информация : UTF-8 Plain Text
Заголовок : Comments
Язык : English
Default : Нет
Forced : Нет
Меню
00:00:00.000 : en:Chapter 01
00:08:02.315 : en:Chapter 02
00:14:03.217 : en:Chapter 03
00:21:08.893 : en:Chapter 04
00:31:45.487 : en:Chapter 05
00:42:22.123 : en:Chapter 06
00:50:55.177 : en:Chapter 07
01:03:45.155 : en:Chapter 08
01:11:49.764 : en:Chapter 09
01:24:47.165 : en:Chapter 10
01:36:31.995 : en:Chapter 11
01:44:18.752 : en:Chapter 12
01:48:31.714 : en:Chapter 13
01:57:20.283 : en:Chapter 14
02:05:59.093 : en:Chapter 15
02:20:02.894 : en:Chapter 16
Source vs rip by zOJIOtOi
---------------------------------------------------------------------------source---------------------------------------------------------------------------

----------------------------------------------------------------------rip by zOJIOtOi----------------------------------------------------------------------
Скриншот c названием фильма Скриншоты
-
Сообщения из этой темы были выделены в отдельный топик [url=http://***/forum/viewtopic.php?t=4811364]Выделено из: Peйd 2 / Тhе Rаiд 2: Веrаnдаl (Гapeт Эвaнc / Gаrеth Еvаns) [2014, Индoнeзия,... [4810467][/url]
[url=http://***/forum/profile.php?mode=viewprofile&u=20407743]Ювелир[/url]
Скачать

Скачать торрент!

Как скачивать? · Что такое торрент? · Рейтинг и ограничения

Сайт не распространяет и не хранит электронные версии произведений, а лишь предоставляет доступ к создаваемому пользователями каталогу ссылок на торрент-файлы, которые содержат только списки хеш-сумм

[Профиль] [ЛС]
Показать сообщения:    
Ответить на тему

Текущее время: Сегодня 21:20

Часовой пояс: GMT + 4



Вы не можете начинать темы
Вы не можете отвечать на сообщения
Вы не можете редактировать свои сообщения
Вы не можете удалять свои сообщения
Вы не можете голосовать в опросах
Вы не можете прикреплять файлы к сообщениям
Вы не можете скачивать файлы