Соседи. На тропе войны / Neighbors (Николас Столлер / Nicholas Stoller.) [2014, США, комедия, HDRip] Dub

Ответить на тему
 
Автор Сообщение

user ®

Стаж: 7 лет 7 месяцев

Сообщений: 20008

Пост Пост: #1 от 28-Авг-2014 15:25

[Цитировать]

Соседи. На тропе войны / Neighbors-«Семейные против студентов»- Страна: США | |
Жанр: комедия
Год выпуска: 2014
Продолжительность: 01:36:41-Перевод: Профессиональный (дублированный)
Cубтитры: нет
Режиссер: Николас Столлер / Nicholas Stoller.-В ролях: Зак Эфрон, Сет Роген, Роуз Бирн, Элиз Варгас, Зоя Варгас, Брайан Хаски, Айк Баринхолц, Карла Галло, Дэйв Франко, Хелстон Сейдж.-Описание: Как известно, мужчины бывают двух типов: холостые и глубоко женатые. Первые молоды, мускулисты и точно магнит притягивают блондинок и шумных друзей. Вторые обитают дома, выращивают детей и поглощают сериалы по телеку. Обычно их пути не пересекаются. Но стоит им стать соседями, мужчины выходят на тропу войны.-КиноПоиск | IMDB | Семпл-Качество видео: HDRip [ BDRip/720p/]
Формат видео: AVI
Видео: 688x288 (2.39:1), 23.976 fps, XviD build 73 ~947 kbps avg, 0.20 bit/pixel
Аудио: 48 kHz, MPEG Layer 3, 2 ch, ~128.00 kbps avg
MediaInfo
General
Complete name : E:\Соседи.На тропе войны.(Logan1995).avi
Format : AVI
Format/Info : Audio Video Interleave
File size : 750 Мбайт
Duration : 1 ч. 36 м.
Overall bit rate : 1085 Кбит/сек
Writing application : VirtualDubMod 1.5.10.3 | www.virtualdub-fr.org || (build 2550/release)
Writing library : VirtualDubMod build 2550/release
Video
ID : 0
Format : MPEG-4 Visual
Format profile : Advanced Simple@L5
Format settings, BVOP : 1
Format settings, QPel : Нет
Format settings, GMC : Без точки перехода
Format settings, Matrix : Выборочная
Codec ID : XVID
Codec ID/Hint : XviD
Duration : 1 ч. 36 м.
Bit rate : 947 Кбит/сек
Width : 688 пикс.
Height : 288 пикс.
Display aspect ratio : 2,35:1
Frame rate : 23,976 кадр/сек
Color space : YUV
Chroma subsampling : 4:2:0
Bit depth : 8 бит
Scan type : Прогрессивная
Compression mode : С потерями
Bits/(Pixel*Frame) : 0.199
Stream size : 655 Мбайт (87%)
Writing library : XviD 73
Audio
ID : 1
Format : MPEG Audio
Format version : Version 1
Format profile : Layer 3
Codec ID : 55
Codec ID/Hint : MP3
Duration : 1 ч. 36 м.
Bit rate mode : Постоянный
Bit rate : 128 Кбит/сек
Channel(s) : 2 канала(ов)
Sampling rate : 48,0 КГц
Compression mode : С потерями
Stream size : 88,5 Мбайт (12%)
Alignment : Соединение по промежуткам
Interleave, duration : 42 мс. (1,00 видеокадр)
Interleave, preload duration : 504 ms
Writing library : LAME3.99r
Encoding settings : -m s -V 4 -q 2 -lowpass 17 -b 128
Скриншоты
Скачать

Скачать торрент!

Как скачивать? · Что такое торрент? · Рейтинг и ограничения

Сайт не распространяет и не хранит электронные версии произведений, а лишь предоставляет доступ к создаваемому пользователями каталогу ссылок на торрент-файлы, которые содержат только списки хеш-сумм

[Профиль] [ЛС]
Показать сообщения:    
Ответить на тему

Текущее время: Сегодня 03:16

Часовой пояс: GMT + 4



Вы не можете начинать темы
Вы не можете отвечать на сообщения
Вы не можете редактировать свои сообщения
Вы не можете удалять свои сообщения
Вы не можете голосовать в опросах
Вы не можете прикреплять файлы к сообщениям
Вы не можете скачивать файлы