Небраска / Nebraska (Александр Пэйн / Alexander Payne) [2013, США, Драма, приключения, BDRip 720p] MVO (iTunes) + VO (Doctor_Joker) + Ukr + Original Eng + Sub (Rus, Eng)

Ответить на тему
 
Автор Сообщение

user ®

Стаж: 7 лет 7 месяцев

Сообщений: 20008

Пост Пост: #1 от 28-Авг-2014 00:05

[Цитировать]

Небраска / Nebraska- Страна: США
Жанр: драма
Год выпуска: 2013
Продолжительность: 01:54:44
Перевод 1: |Профессиональный (многоголосый закадровый) iTunes Russia|
Перевод 2: |Одноголосый закадровый А. Матвеев|
Cубтитры: русские, английские
Оригинальная аудиодорожка: английский-Режиссер: Александр Пэйн / Alexander Payne
В ролях: Брюс Дерн, Уилл Форте, Джун Скуиб, Боб Оденкёрк, Стейси Кич, Мэри Луиза Уилсон, Рэнс Ховард, Тим Дрисколл, Девин Рэтрей, Анджела МакЭван
Описание: Вудроу Т. Грант получил письмо счастья. И поверил в него. Ну, а что взять с Вудроу? Он уже старый, у него начинается Альцгеймер, он алкоголик… Вот Вуди и отправляется в город Линкольн, штат Небраска, чтобы получить «обещанный» письмом счастья 1.000.000 долларов. А поможет ему в этом сын по имени Дэвид, который хоть и понимает, что это «разводка», но хочет подарить своему отцу немножко счастья.
-Релиз: delia

Рип от SbR
Сэмпл
Тип релиза: BDRip 720p
Контейнер: MKV
Видео: AVC, 1280x534 (2.40:1), 8172 kbps, 23,976 fps, 0,499 bpp
Аудио №1: Русский / AC3 / 3.0 / 48 kHz / 384 kbps / 16 bit |Многоголосый закадровый, iTunes Russia|
Аудио №2: Русский / AC3 / 5.1 / 48 kHz / 640 kbps / 16 bit |Одноголосый закадровый, А. Матвеев|
Аудио №3: Украинский / AC3 / 5.1 / 48 kHz / 640 kbps / 16 bit |Многоголосый закадровый, Омикрон|
Аудио №4: Английский / AC3 / 3.0 / 48 kHz / 640 kbps / 16bit
Субтитры: Russian (А. Матвеев), Russian (Andreas), English, English (SDH)
MediaInfo
Общее
Уникальный идентификатор : 240378674906656822345328839063837417982 (0xB4D73FB152B57E2BAC0D5DD26FD121FE)
Формат : Matroska
Версия формата : Version 4 / Version 2
Размер файла : 8,57 Гбайт
Продолжительность : 1 ч. 54 м.
Общий поток : 10,7 Мбит/сек
Дата кодирования : UTC 2014-08-22 20:17:44
Программа кодирования : mkvmerge v6.9.1 ('Blue Panther') 32bit built on Apr 18 2014 18:15:44
Библиотека кодирования : libebml v1.3.0 + libmatroska v1.4.1
Видео
Идентификатор : 1
Формат : AVC
Формат/Информация : Advanced Video Codec
Профиль формата : High@L4.1
Параметр CABAC формата : Да
Параметр ReFrames формата : 12 кадров
Идентификатор кодека : V_MPEG4/ISO/AVC
Продолжительность : 1 ч. 54 м.
Битрейт : 8173 Кбит/сек
Ширина : 1280 пикселей
Высота : 534 пикселя
Соотношение сторон : 2,40:1
Режим частоты кадров : Постоянный
Частота кадров : 23,976 кадра/сек
Цветовое пространство : YUV
Субдискретизация насыщенности : 4:2:0
Битовая глубина : 8 бит
Тип развёртки : Прогрессивная
Бит/(Пиксели*Кадры) : 0.499
Размер потока : 6,55 Гбайт (76%)
Библиотека кодирования : x264 core 142 r2431kMod ac76440
Настройки программы : cabac=1 / ref=12 / deblock=1:-3:-3 / analyse=0x3:0x133 / me=esa / subme=11 / psy=1 / fade_compensate=0.00 / psy_rd=1.07:0.05 / mixed_ref=1 / me_range=24 / chroma_me=1 / trellis=2 / 8x8dct=1 / cqm=0 / deadzone=21,11 / fast_pskip=0 / chroma_qp_offset=-3 / threads=6 / lookahead_threads=1 / sliced_threads=0 / nr=0 / decimate=1 / interlaced=0 / bluray_compat=0 / constrained_intra=0 / fgo=0 / bframes=12 / b_pyramid=2 / b_adapt=2 / b_bias=0 / direct=3 / weightb=1 / open_gop=0 / weightp=2 / keyint=250 / keyint_min=23 / scenecut=40 / intra_refresh=0 / rc_lookahead=60 / rc=crf / mbtree=0 / crf=15.0000 / qcomp=0.60 / qpmin=0 / qpmax=69 / qpstep=4 / vbv_maxrate=62500 / vbv_bufsize=78125 / crf_max=0.0 / nal_hrd=none / filler=0 / ip_ratio=1.30 / pb_ratio=1.20 / aq=1:0.75
Язык : English
Default : Да
Forced : Нет
Коэффициенты матрицы : BT.709
Аудио #1
Идентификатор : 2
Формат : AC-3
Формат/Информация : Audio Coding 3
Расширение режима : CM (complete main)
Параметр Endianness формата : Big
Идентификатор кодека : A_AC3
Продолжительность : 1 ч. 54 м.
Вид битрейта : Постоянный
Битрейт : 384 Кбит/сек
Каналы : 3 канала
Расположение каналов : Front: L C R
Частота : 48,0 КГц
Битовая глубина : 16 бит
Метод сжатия : С потерями
Размер потока : 315 Мбайт (4%)
Заголовок : Многоголосый закадровый, iTunes Russia
Язык : Russian
Default : Да
Forced : Нет
Аудио #2
Идентификатор : 3
Формат : AC-3
Формат/Информация : Audio Coding 3
Расширение режима : CM (complete main)
Параметр Endianness формата : Big
Идентификатор кодека : A_AC3
Продолжительность : 1 ч. 54 м.
Вид битрейта : Постоянный
Битрейт : 640 Кбит/сек
Каналы : 6 каналов
Расположение каналов : Front: L C R, Side: L R, LFE
Частота : 48,0 КГц
Битовая глубина : 16 бит
Метод сжатия : С потерями
Размер потока : 525 Мбайт (6%)
Заголовок : Одноголосый закадровый, А. Матвеев
Язык : Russian
Default : Нет
Forced : Нет
Аудио #3
Идентификатор : 4
Формат : AC-3
Формат/Информация : Audio Coding 3
Расширение режима : CM (complete main)
Параметр Endianness формата : Big
Идентификатор кодека : A_AC3
Продолжительность : 1 ч. 54 м.
Вид битрейта : Постоянный
Битрейт : 640 Кбит/сек
Каналы : 6 каналов
Расположение каналов : Front: L C R, Side: L R, LFE
Частота : 48,0 КГц
Битовая глубина : 16 бит
Метод сжатия : С потерями
Размер потока : 525 Мбайт (6%)
Заголовок : Многоголосый закадровый, Омикрон
Язык : Ukrainian
Default : Нет
Forced : Нет
Аудио #4
Идентификатор : 5
Формат : AC-3
Формат/Информация : Audio Coding 3
Расширение режима : CM (complete main)
Параметр Endianness формата : Big
Идентификатор кодека : A_AC3
Продолжительность : 1 ч. 54 м.
Вид битрейта : Постоянный
Битрейт : 640 Кбит/сек
Каналы : 3 канала
Расположение каналов : Front: L C R
Частота : 48,0 КГц
Битовая глубина : 16 бит
Метод сжатия : С потерями
Размер потока : 525 Мбайт (6%)
Язык : English
Default : Нет
Forced : Нет
Текст #1
Идентификатор : 6
Формат : UTF-8
Идентификатор кодека : S_TEXT/UTF8
Идентификатор кодека/Информация : UTF-8 Plain Text
Заголовок : А. Матвеев
Язык : Russian
Default : Нет
Forced : Нет
Текст #2
Идентификатор : 7
Формат : UTF-8
Идентификатор кодека : S_TEXT/UTF8
Идентификатор кодека/Информация : UTF-8 Plain Text
Заголовок : Andreas
Язык : Russian
Default : Нет
Forced : Нет
Текст #3
Идентификатор : 8
Формат : UTF-8
Идентификатор кодека : S_TEXT/UTF8
Идентификатор кодека/Информация : UTF-8 Plain Text
Заголовок : full
Язык : English
Default : Нет
Forced : Нет
Текст #4
Идентификатор : 9
Формат : UTF-8
Идентификатор кодека : S_TEXT/UTF8
Идентификатор кодека/Информация : UTF-8 Plain Text
Заголовок : SDH
Язык : English
Default : Нет
Forced : Нет
Меню
00:00:00.000 : en:00:00:00.000
00:06:32.600 : en:00:06:32.600
00:13:18.380 : en:00:13:18.380
00:18:09.630 : en:00:18:09.630
00:25:35.534 : en:00:25:35.534
00:31:17.083 : en:00:31:17.083
00:37:16.901 : en:00:37:16.901
00:46:10.601 : en:00:46:10.601
00:51:17.365 : en:00:51:17.365
00:55:07.846 : en:00:55:07.846
01:02:24.449 : en:01:02:24.449
01:08:19.178 : en:01:08:19.178
01:13:26.318 : en:01:13:26.318
01:21:13.952 : en:01:21:13.952
01:27:09.933 : en:01:27:09.933
01:32:20.117 : en:01:32:20.117
01:39:37.805 : en:01:39:37.805
01:48:59.032 : en:01:48:59.032
Скриншот с названием фильма Скриншоты
Скачать

Скачать торрент!

Как скачивать? · Что такое торрент? · Рейтинг и ограничения

Сайт не распространяет и не хранит электронные версии произведений, а лишь предоставляет доступ к создаваемому пользователями каталогу ссылок на торрент-файлы, которые содержат только списки хеш-сумм

[Профиль] [ЛС]
Показать сообщения:    
Ответить на тему

Текущее время: Сегодня 02:25

Часовой пояс: GMT + 4



Вы не можете начинать темы
Вы не можете отвечать на сообщения
Вы не можете редактировать свои сообщения
Вы не можете удалять свои сообщения
Вы не можете голосовать в опросах
Вы не можете прикреплять файлы к сообщениям
Вы не можете скачивать файлы