Последний луч света / The Last Light (Эндрю Хайатт / Andrew Hyatt) [2014, США, триллер, драма, WEB-DL 1080p] VO + Original (Eng) + Sub (eng)

Ответить на тему
 
Автор Сообщение

user ®

Стаж: 7 лет 7 месяцев

Сообщений: 20008

Пост Пост: #1 от 28-Авг-2014 00:05

[Цитировать]

Последний луч света
The Last Light
Страна: США
Год выпуска: 2014
Жанр: триллер, драма
Продолжительность: 01:33:09
Перевод: Одноголосый закадровый - datynet
Оригинальная аудиодорожка: английская
Субтитры: английские-Режиссёр: Эндрю Хайатт : Andrew Hyatt
В главных ролях: Эдвард Ферлонг, Джефф Фэйи, Ивонн Зима, Эд Куинн, Молли Хэйгэн, Тахина Тоцци-МакМанус, Сет Д. Митчелл-Описание: Семь незнакомых друг с другом людей оказываются в ловушке внутри заброшенной больницы после необъяснимых апокалиптических событий. Помимо простого выживания, они должны бороться с загадочными существами, которые выслеживают их по одиночке.- -Качество: WEB-DL 1080p
Формат: MKV
Видео кодек: AVC
Аудио кодек: АС3
Видео: 1912x1000, 23.976 fps, ~4 621 kbps avg, 0.101 bit/pixel
Аудио #1: [RUS] 48 kHz, AC3 Dolby Digital, 2/0 (L,R) ch, ~192 kbps
Аудио #2: [ENG] 48 kHz, AC3 Dolby Digital, 3/2 (L,C,R,l,r) + LFE ch, ~384 kbps
Формат субтитров:: softsub (SRT)
навигация по главам: 10 глав
скриншоты MediaInfo
Общее
Уникальный идентификатор : 197034327602788174981369328101013206575 (0x943B6E6084804065AD68186A216A362F)
Полное имя : D:\Im\Последний луч света\The Last Light.2014.WEB-DL 1080p.mkv
Формат : Matroska
Версия формата : Version 4 / Version 2
Размер файла : 3,45 Гбайт
Продолжительность : 1 ч. 33 м.
Общий поток : 5302 Кбит/сек
Дата кодирования : UTC 2014-08-25 18:10:25
Программа кодирования : mkvmerge v7.1.0 ('Good Love') 32bit built on Jul 27 2014 12:59:18
Библиотека кодирования : libebml v1.3.0 + libmatroska v1.4.1
DURATION : 01:33:09.120000000
NUMBER_OF_FRAMES : 174660
NUMBER_OF_BYTES : 134138880
_STATISTICS_WRITING_APP : mkvmerge v7.1.0 ('Good Love') 32bit built on Jul 27 2014 12:59:18
_STATISTICS_WRITING_DATE_UTC : 2014-08-25 18:10:25
_STATISTICS_TAGS : BPS DURATION NUMBER_OF_FRAMES NUMBER_OF_BYTES
Видео
Идентификатор : 1
Формат : AVC
Формат/Информация : Advanced Video Codec
Профиль формата : High@L4.0
Параметр CABAC формата : Да
Параметр ReFrames формата : 4 кадра
Идентификатор кодека : V_MPEG4/ISO/AVC
Продолжительность : 1 ч. 33 м.
Битрейт : 4621 Кбит/сек
Ширина : 1912 пикселей
Высота : 1000 пикселей
Соотношение сторон : 1,912
Режим частоты кадров : Постоянный
Частота кадров : 23,976 кадра/сек
Цветовое пространство : YUV
Субдискретизация насыщенности : 4:2:0
Битовая глубина : 8 бит
Тип развёртки : Прогрессивная
Бит/(Пиксели*Кадры) : 0.101
Размер потока : 3,01 Гбайт (87%)
Язык : English
Default : Да
Forced : Нет
Основные цвета : BT.709
Характеристики трансфера : BT.709
Коэффициенты матрицы : BT.709
Аудио #1
Идентификатор : 2
Формат : AC-3
Формат/Информация : Audio Coding 3
Расширение режима : CM (complete main)
Параметр Endianness формата : Big
Идентификатор кодека : A_AC3
Продолжительность : 1 ч. 33 м.
Вид битрейта : Постоянный
Битрейт : 192 Кбит/сек
Каналы : 2 канала
Расположение каналов : Front: L R
Частота : 48,0 КГц
Битовая глубина : 16 бит
Метод сжатия : С потерями
Размер потока : 128 Мбайт (4%)
Заголовок : VO - datynet
Язык : Russian
Default : Да
Forced : Нет
Аудио #2
Идентификатор : 3
Формат : AC-3
Формат/Информация : Audio Coding 3
Расширение режима : CM (complete main)
Параметр Endianness формата : Big
Идентификатор кодека : A_AC3
Продолжительность : 1 ч. 33 м.
Вид битрейта : Постоянный
Битрейт : 384 Кбит/сек
Каналы : 6 каналов
Расположение каналов : Front: L C R, Side: L R, LFE
Частота : 48,0 КГц
Битовая глубина : 16 бит
Метод сжатия : С потерями
Размер потока : 256 Мбайт (7%)
Заголовок : ENG
Язык : English
Default : Нет
Forced : Нет
Текст
Идентификатор : 4
Формат : UTF-8
Идентификатор кодека : S_TEXT/UTF8
Идентификатор кодека/Информация : UTF-8 Plain Text
Заголовок : Eng Sub
Язык : English
Default : Нет
Forced : Нет
Меню
00:00:00.000 : en:Chapter 1
00:10:53.000 : en:Chapter 2
00:19:09.000 : en:Chapter 3
00:29:39.000 : en:Chapter 4
00:39:45.000 : en:Chapter 5
00:50:54.000 : en:Chapter 6
00:59:46.000 : en:Chapter 7
01:10:48.000 : en:Chapter 8
01:18:49.000 : en:Chapter 9
01:31:10.000 : en:Chapter 10
Скачать

Скачать торрент!

Как скачивать? · Что такое торрент? · Рейтинг и ограничения

Сайт не распространяет и не хранит электронные версии произведений, а лишь предоставляет доступ к создаваемому пользователями каталогу ссылок на торрент-файлы, которые содержат только списки хеш-сумм

[Профиль] [ЛС]
Показать сообщения:    
Ответить на тему

Текущее время: Сегодня 04:27

Часовой пояс: GMT + 4



Вы не можете начинать темы
Вы не можете отвечать на сообщения
Вы не можете редактировать свои сообщения
Вы не можете удалять свои сообщения
Вы не можете голосовать в опросах
Вы не можете прикреплять файлы к сообщениям
Вы не можете скачивать файлы