Внеземной театр / Внеземной / E.T.X.R. / ETXR (Тревор Сэндс / Travor Sands) [2014, США, Фантастика, WEB-DL 1080p] DVO (HamsterStudio) + Sub Rus, Eng + Original Eng

Ответить на тему
 
Автор Сообщение

user ®

Стаж: 7 лет 7 месяцев

Сообщений: 20008

Пост Пост: #1 от 28-Авг-2014 00:05

[Цитировать]

Внеземной театр / Внеземной / E.T.X.R. / ETXR
Страна: США
Жанр: Фантастика
Год выпуска: 2014
Продолжительность: 01:17:54
Перевод: Профессиональный (двухголосый закадровый) HamsterStudio
Cубтитры: русские, английские
Оригинальная аудиодорожка: английский
Режиссер: Тревор Сэндс / Travor Sands
В ролях: Калеб Хант, Джереми Люк, Леви Филер, Брайан Хоуи, Линдси Морган, Ксандер Беркли, Дэн Донохью, Питер Дуглас, Брендан Хант, Мэтт Нолан
Описание: Диджею Биксу от давнего приятеля достаётся легендарное изобретение Никола Теслы - тесласкоп, который, по легенде, способен принимать сигналы из внеземных миров.
Сэмпл: http://rusfolder.com/41562039
Качество видео: WEB-DL 1080p
Формат видео: MKV
Видео: AVC, 1920x1080, 16:9, 23.976 fps
Аудио: AC3, 192 kbps, 48000 Hz, 2 channels, русский
Аудио 2: AC3, 384 kbps, 48000 Hz, 6 channels, английский
Формат субтитров: softsub (SRT)
Доп. информация о субтитрах: русские, английские
MediaInfo
Общее
Уникальный идентификатор : 191789945929074434048247556122515875757 (0x90496665B9F3D8C891DE744CD88827AD)
Полное имя : D:\Dvar\2014 - Внеземной Театр - ETXR (WEB-DL 1080p)\2014 - Внеземной Театр - ETXR (WEB-DL 1080p).mkv
Формат : Matroska
Версия формата : Version 4 / Version 2
Размер файла : 2,99 Гбайт
Продолжительность : 1 ч. 17 м.
Общий поток : 5492 Кбит/сек
Дата кодирования : UTC 2014-08-26 18:09:35
Программа кодирования : mkvmerge v6.0.0 ('Coming Up For Air') built on Jan 20 2013 09:52:00
Библиотека кодирования : libebml v1.3.0 + libmatroska v1.4.0
Видео
Идентификатор : 1
Формат : AVC
Формат/Информация : Advanced Video Codec
Профиль формата : High@L4.0
Параметр CABAC формата : Да
Параметр ReFrames формата : 4 кадра
Идентификатор кодека : V_MPEG4/ISO/AVC
Продолжительность : 1 ч. 17 м.
Битрейт : 4807 Кбит/сек
Ширина : 1920 пикселей
Высота : 1080 пикселей
Соотношение сторон : 16:9
Режим частоты кадров : Постоянный
Частота кадров : 23,976 кадра/сек
Цветовое пространство : YUV
Субдискретизация насыщенности : 4:2:0
Битовая глубина : 8 бит
Тип развёртки : Прогрессивная
Бит/(Пиксели*Кадры) : 0.097
Размер потока : 2,62 Гбайт (88%)
Язык : English
Default : Да
Forced : Нет
Основные цвета : BT.709
Характеристики трансфера : BT.709
Коэффициенты матрицы : BT.709
Аудио #1
Идентификатор : 2
Формат : AC-3
Формат/Информация : Audio Coding 3
Расширение режима : CM (complete main)
Параметр Endianness формата : Big
Идентификатор кодека : A_AC3
Продолжительность : 1 ч. 17 м.
Вид битрейта : Постоянный
Битрейт : 192 Кбит/сек
Каналы : 2 канала
Расположение каналов : Front: L R
Частота : 48,0 КГц
Битовая глубина : 16 бит
Метод сжатия : С потерями
Задержка видео : 28 мс.
Размер потока : 107 Мбайт (3%)
Заголовок : HamsterStudio
Язык : Russian
Default : Да
Forced : Да
Аудио #2
Идентификатор : 3
Формат : AC-3
Формат/Информация : Audio Coding 3
Расширение режима : CM (complete main)
Параметр Endianness формата : Big
Идентификатор кодека : A_AC3
Продолжительность : 1 ч. 17 м.
Вид битрейта : Постоянный
Битрейт : 384 Кбит/сек
Каналы : 6 каналов
Расположение каналов : Front: L C R, Side: L R, LFE
Частота : 48,0 КГц
Битовая глубина : 16 бит
Метод сжатия : С потерями
Размер потока : 214 Мбайт (7%)
Язык : English
Default : Нет
Forced : Нет
Текст #1
Идентификатор : 4
Формат : UTF-8
Идентификатор кодека : S_TEXT/UTF8
Идентификатор кодека/Информация : UTF-8 Plain Text
Заголовок : Antonio
Язык : Russian
Default : Нет
Forced : Нет
Текст #2
Идентификатор : 5
Формат : UTF-8
Идентификатор кодека : S_TEXT/UTF8
Идентификатор кодека/Информация : UTF-8 Plain Text
Язык : English
Default : Нет
Forced : Нет
Меню
00:00:00.000 : en:An Opportunity from the Past
00:11:28.000 : en:The Scope
00:21:18.000 : en:Play It Again
00:29:16.000 : en:The Offer
00:36:15.000 : en:They Arrive
00:45:55.000 : en:A Dream Within a Dream
00:52:57.000 : en:Journey to the Desert
01:03:47.000 : en:The Completion
01:14:57.000 : en:End Credits
Скриншот c названием фильма Скриншоты
Скачать

Скачать торрент!

Как скачивать? · Что такое торрент? · Рейтинг и ограничения

Сайт не распространяет и не хранит электронные версии произведений, а лишь предоставляет доступ к создаваемому пользователями каталогу ссылок на торрент-файлы, которые содержат только списки хеш-сумм

[Профиль] [ЛС]
Показать сообщения:    
Ответить на тему

Текущее время: Сегодня 04:12

Часовой пояс: GMT + 4



Вы не можете начинать темы
Вы не можете отвечать на сообщения
Вы не можете редактировать свои сообщения
Вы не можете удалять свои сообщения
Вы не можете голосовать в опросах
Вы не можете прикреплять файлы к сообщениям
Вы не можете скачивать файлы